+ ตอบกลับกระทู้
สรุปผลการค้นหา 1 ถึง 3 จากทั้งหมด 3
  1. #1
    Administrators รูปส่วนตัว Duckload.us
    สมัครเมื่อ
    Dec 2010
    โพสต์
    143,818
    Thanks
    7
    Thanked 150,602 Times in 65,695 Posts

    Lightbulb [เกาหลี]-•[Netflix]• A.Korean.Odyssey : ตำนานไซอิ๋วฉบับเกาหลี [Season 1 Complete] [เสียงเกาหลี]-[บรรยายไทย + อังกฤษ + ภาษาอื่นๆ]-[ซับไทย MASTER From Netflix]-[Soundtrack บรรยายไทย]-WEB-DL.H.264.1080p.



    ความอยากอยู่ยงคงกระพันของสิ่งมีชีวิตลึกลับผู้เห็นแ ก่ตัวกลับส่งผลลัพธ์อันเลวร้าย เมื่อเขาต้องตกอยู่ภายใต้การควบคุมของหญิงสาวผู้มองเ ห็นสิ่งมีชีวิตจากภพอื่น

    Code:
    Format                      : Matroska
    Format version              : Version 4 / Version 2
    File size                   : 4.42 GiB
    Duration                    : 1 h 27 min
    Overall bit rate mode       : Variable
    Overall bit rate            : 7 268 kb/s
    
    Video
    ID                          : 1
    Format                      : AVC
    Format/Info                 : Advanced Video Codec
    Format profile              : [email protected]
    Format settings, CABAC      : Yes
    Format settings, ReFrames   : 4 frames
    Codec ID                    : V_MPEG4/ISO/AVC
    Duration                    : 1 h 27 min
    Bit rate mode               : Variable
    Bit rate                    : 7 135 kb/s
    Maximum bit rate            : 20.0 Mb/s
    Width                       : 1 920 pixels
    Height                      : 1 080 pixels
    Display aspect ratio        : 16:9
    Frame rate mode             : Constant
    Frame rate                  : 23.976 (24000/1001) FPS
    Color space                 : YUV
    Chroma subsampling          : 4:2:0
    Bit depth                   : 8 bits
    Scan type                   : Progressive
    Bits/(Pixel*Frame)          : 0.144
    Stream size                 : 4.34 GiB (98%)
    Writing library             : x264 core 148 r2715 7e75228
    Encoding settings           : cabac=1 / ref=4 / deblock=1:0:0 / analyse=0x3:0x111 / me=umh / subme=10 / psy=1 / psy_rd=1.00:0.00 / mixed_ref=1 / me_range=120 / chroma_me=1 / trellis=2 / 8x8dct=1 / cqm=0 / deadzone=21,11 / fast_pskip=1 / chroma_qp_offset=-2 / threads=8 / lookahead_threads=2 / sliced_threads=0 / nr=0 / decimate=1 / interlaced=0 / bluray_compat=0 / stitchable=1 / constrained_intra=0 / bframes=16 / b_pyramid=2 / b_adapt=2 / b_bias=0 / direct=3 / weightb=1 / open_gop=0 / weightp=2 / keyint=240 / keyint_min=121 / scenecut=0 / intra_refresh=0 / rc_lookahead=240 / rc=crf / mbtree=1 / crf=16.0 / qcomp=0.50 / qpmin=6 / qpmax=51 / qpstep=4 / vbv_maxrate=20000 / vbv_bufsize=25000 / crf_max=0.0 / nal_hrd=vbr / filler=0 / ip_ratio=1.40 / aq=1:0.80
    Default                     : Yes
    Forced                      : No
    
    Audio
    ID                          : 2
    Format                      : E-AC-3
    Format/Info                 : Enhanced Audio Coding 3
    Format settings, Endianness : Big
    Codec ID                    : A_EAC3
    Duration                    : 1 h 27 min
    Bit rate mode               : Constant
    Bit rate                    : 128 kb/s
    Channel(s)                  : 2 channels
    Channel positions           : Front: L R
    Sampling rate               : 48.0 kHz
    Frame rate                  : 187.500 FPS (256 spf)
    Compression mode            : Lossy
    Stream size                 : 79.7 MiB (2%)
    Language                    : Korean
    Service kind                : Complete Main
    Default                     : Yes
    Forced                      : No
    
    Text #1
    ID                          : 3
    Format                      : UTF-8
    Codec ID                    : S_TEXT/UTF8
    Codec ID/Info               : UTF-8 Plain Text
    Duration                    : 1 h 26 min
    Bit rate                    : 51 b/s
    Count of elements           : 1085
    Stream size                 : 32.3 KiB (0%)
    Language                    : English
    Default                     : Yes
    Forced                      : No
    
    Text #2
    ID                          : 4
    Format                      : UTF-8
    Codec ID                    : S_TEXT/UTF8
    Codec ID/Info               : UTF-8 Plain Text
    Duration                    : 1 h 26 min
    Bit rate                    : 77 b/s
    Count of elements           : 1102
    Stream size                 : 49.4 KiB (0%)
    Language                    : Arabic
    Default                     : No
    Forced                      : No
    
    Text #3
    ID                          : 5
    Format                      : UTF-8
    Codec ID                    : S_TEXT/UTF8
    Codec ID/Info               : UTF-8 Plain Text
    Duration                    : 1 h 26 min
    Bit rate                    : 50 b/s
    Count of elements           : 1097
    Stream size                 : 32.2 KiB (0%)
    Language                    : Danish
    Default                     : No
    Forced                      : No
    
    Text #4
    ID                          : 6
    Format                      : UTF-8
    Codec ID                    : S_TEXT/UTF8
    Codec ID/Info               : UTF-8 Plain Text
    Duration                    : 1 h 26 min
    Bit rate                    : 52 b/s
    Count of elements           : 1096
    Stream size                 : 33.3 KiB (0%)
    Language                    : German
    Default                     : No
    Forced                      : No
    
    Text #5
    ID                          : 7
    Format                      : UTF-8
    Codec ID                    : S_TEXT/UTF8
    Codec ID/Info               : UTF-8 Plain Text
    Duration                    : 1 h 26 min
    Bit rate                    : 87 b/s
    Count of elements           : 1102
    Stream size                 : 55.5 KiB (0%)
    Language                    : Greek
    Default                     : No
    Forced                      : No
    
    Text #6
    ID                          : 8
    Format                      : UTF-8
    Codec ID                    : S_TEXT/UTF8
    Codec ID/Info               : UTF-8 Plain Text
    Duration                    : 1 h 26 min
    Bit rate                    : 48 b/s
    Count of elements           : 1094
    Stream size                 : 30.6 KiB (0%)
    Title                       : European
    Language                    : Spanish
    Default                     : No
    Forced                      : No
    
    Text #7
    ID                          : 9
    Format                      : UTF-8
    Codec ID                    : S_TEXT/UTF8
    Codec ID/Info               : UTF-8 Plain Text
    Duration                    : 1 h 26 min
    Bit rate                    : 50 b/s
    Count of elements           : 1101
    Stream size                 : 31.9 KiB (0%)
    Language                    : Finnish
    Default                     : No
    Forced                      : No
    
    Text #8
    ID                          : 10
    Format                      : UTF-8
    Codec ID                    : S_TEXT/UTF8
    Codec ID/Info               : UTF-8 Plain Text
    Duration                    : 1 h 26 min
    Bit rate                    : 52 b/s
    Count of elements           : 1096
    Stream size                 : 33.5 KiB (0%)
    Language                    : French
    Default                     : No
    Forced                      : No
    
    Text #9
    ID                          : 11
    Format                      : UTF-8
    Codec ID                    : S_TEXT/UTF8
    Codec ID/Info               : UTF-8 Plain Text
    Duration                    : 1 h 26 min
    Bit rate                    : 74 b/s
    Count of elements           : 1102
    Stream size                 : 47.2 KiB (0%)
    Language                    : Hebrew
    Default                     : No
    Forced                      : No
    
    Text #10
    ID                          : 12
    Format                      : UTF-8
    Codec ID                    : S_TEXT/UTF8
    Codec ID/Info               : UTF-8 Plain Text
    Duration                    : 1 h 26 min
    Bit rate                    : 46 b/s
    Count of elements           : 1083
    Stream size                 : 29.8 KiB (0%)
    Language                    : Indonesian
    Default                     : No
    Forced                      : No
    
    Text #11
    ID                          : 13
    Format                      : UTF-8
    Codec ID                    : S_TEXT/UTF8
    Codec ID/Info               : UTF-8 Plain Text
    Duration                    : 1 h 26 min
    Bit rate                    : 51 b/s
    Count of elements           : 1097
    Stream size                 : 32.9 KiB (0%)
    Language                    : Italian
    Default                     : No
    Forced                      : No
    
    Text #12
    ID                          : 14
    Format                      : UTF-8
    Codec ID                    : S_TEXT/UTF8
    Codec ID/Info               : UTF-8 Plain Text
    Duration                    : 1 h 26 min
    Bit rate                    : 50 b/s
    Count of elements           : 1102
    Stream size                 : 32.2 KiB (0%)
    Language                    : Norwegian Bokmal
    Default                     : No
    Forced                      : No
    
    Text #13
    ID                          : 15
    Format                      : UTF-8
    Codec ID                    : S_TEXT/UTF8
    Codec ID/Info               : UTF-8 Plain Text
    Duration                    : 1 h 26 min
    Bit rate                    : 49 b/s
    Count of elements           : 1093
    Stream size                 : 31.7 KiB (0%)
    Language                    : Dutch
    Default                     : No
    Forced                      : No
    
    Text #14
    ID                          : 16
    Format                      : UTF-8
    Codec ID                    : S_TEXT/UTF8
    Codec ID/Info               : UTF-8 Plain Text
    Duration                    : 1 h 26 min
    Bit rate                    : 45 b/s
    Count of elements           : 1097
    Stream size                 : 29.1 KiB (0%)
    Language                    : Polish
    Default                     : No
    Forced                      : No
    
    Text #15
    ID                          : 17
    Format                      : UTF-8
    Codec ID                    : S_TEXT/UTF8
    Codec ID/Info               : UTF-8 Plain Text
    Duration                    : 1 h 26 min
    Bit rate                    : 51 b/s
    Count of elements           : 1097
    Stream size                 : 32.6 KiB (0%)
    Title                       : European
    Language                    : Portuguese
    Default                     : No
    Forced                      : No
    
    Text #16
    ID                          : 18
    Format                      : UTF-8
    Codec ID                    : S_TEXT/UTF8
    Codec ID/Info               : UTF-8 Plain Text
    Duration                    : 1 h 26 min
    Bit rate                    : 51 b/s
    Count of elements           : 1100
    Stream size                 : 32.7 KiB (0%)
    Language                    : Romanian
    Default                     : No
    Forced                      : No
    
    Text #17
    ID                          : 19
    Format                      : UTF-8
    Codec ID                    : S_TEXT/UTF8
    Codec ID/Info               : UTF-8 Plain Text
    Duration                    : 1 h 26 min
    Bit rate                    : 51 b/s
    Count of elements           : 1097
    Stream size                 : 33.0 KiB (0%)
    Language                    : Swedish
    Default                     : No
    Forced                      : No
    
    Text #18
    ID                          : 20
    Format                      : UTF-8
    Codec ID                    : S_TEXT/UTF8
    Codec ID/Info               : UTF-8 Plain Text
    Duration                    : 1 h 26 min
    Bit rate                    : 120 b/s
    Count of elements           : 1101
    Stream size                 : 76.7 KiB (0%)
    Language                    : Thai
    Default                     : No
    Forced                      : No
    
    Text #19
    ID                          : 21
    Format                      : UTF-8
    Codec ID                    : S_TEXT/UTF8
    Codec ID/Info               : UTF-8 Plain Text
    Duration                    : 1 h 26 min
    Bit rate                    : 49 b/s
    Count of elements           : 1099
    Stream size                 : 31.2 KiB (0%)
    Language                    : Turkish
    Default                     : No
    Forced                      : No
    
    Text #20
    ID                          : 22
    Format                      : UTF-8
    Codec ID                    : S_TEXT/UTF8
    Codec ID/Info               : UTF-8 Plain Text
    Duration                    : 1 h 26 min
    Bit rate                    : 50 b/s
    Count of elements           : 1102
    Stream size                 : 32.1 KiB (0%)
    Title                       : Simplified
    Language                    : Chinese
    Default                     : No
    Forced                      : No
    
    Text #21
    ID                          : 23
    Format                      : UTF-8
    Codec ID                    : S_TEXT/UTF8
    Codec ID/Info               : UTF-8 Plain Text
    Duration                    : 1 h 26 min
    Bit rate                    : 50 b/s
    Count of elements           : 1101
    Stream size                 : 32.3 KiB (0%)
    Title                       : Traditional
    Language                    : Chinese
    Default                     : No
    Forced                      : No












    1
    http://www.filecondo.com/dl.php?f=j13c7d1J1uhm
    2
    http://www.filecondo.com/dl.php?f=F283ef1J1ujh
    3
    http://www.filecondo.com/dl.php?f=X177921J1uli
    4
    http://www.filecondo.com/dl.php?f=O23dbd1J1un8
    5
    http://www.filecondo.com/dl.php?f=9226aa1J1upe
    6
    http://www.filecondo.com/dl.php?f=Dd03dc1J1uqO
    7
    http://www.filecondo.com/dl.php?f=F568221J1usE
    8
    http://www.filecondo.com/dl.php?f=P6d03f1J1utF
    9
    http://www.filecondo.com/dl.php?f=5bad6c1J1uvA
    10
    http://www.filecondo.com/dl.php?f=G4d1fe1J1uxx
    11
    http://www.filecondo.com/dl.php?f=M610db1J1uyD
    12
    http://www.filecondo.com/dl.php?f=H13fb41J1uzs
    13
    http://www.filecondo.com/dl.php?f=Vc4ee91J1uBn
    14
    http://www.filecondo.com/dl.php?f=S13b441J1uCq
    15
    http://www.filecondo.com/dl.php?f=md5d5f1J1uDg
    16
    http://www.filecondo.com/dl.php?f=Mccabe1J1uEg
    17
    http://www.filecondo.com/dl.php?f=I427cc1J1uFe
    18
    http://www.filecondo.com/dl.php?f=H080d11J1uGc
    19
    http://www.filecondo.com/dl.php?f=Y159fb1J1uHh
    20
    http://www.filecondo.com/dl.php?f=jad39e1J1uIr

  2. The Following User Says Thank You to Duckload.us For This Useful Post:

    tattoona (11-18-2020)

  3. #2
    Senior Member
    สมัครเมื่อ
    May 2012
    โพสต์
    1,496
    Thanks
    0
    Thanked 0 Times in 0 Posts
    ขอบคุณครับ

  4. #3
    Member
    สมัครเมื่อ
    Sep 2020
    โพสต์
    38
    Thanks
    0
    Thanked 0 Times in 0 Posts
    โหลดไม่ได้ค่ะ แก้ไขให้หน่อยนะค่ะ
    ขอบคุณค่ะ

+ ตอบกลับกระทู้

ข้อมูลกระทู้

Users Browsing this Thread

ในขณะนี้มี 1 ท่านดูกระทู้อยู่. (0 สมาชิกและ 1 ผู้เยี่ยมชม)

     

กฎการโพสต์ข้อความ

  • ท่าน ไม่สามารถ ตั้งกระทู้ใหม่ได้
  • ท่าน ไม่สามารถ ตอบกระทู้ได้
  • ท่าน ไม่สามารถ แนบไฟล์ได้
  • ท่าน ไม่สามารถ แก้ไขข้อความโพสต์ได้
  • BB code สถานะ เปิด
  • Smilies สถานะ เปิด
  • [IMG] สถานะ เปิด
  • HTML สถานะ ปิด