+ ตอบกลับกระทู้
สรุปผลการค้นหา 1 ถึง 2 จากทั้งหมด 2
  1. #1
    Administrators รูปส่วนตัว Duckload.us
    สมัครเมื่อ
    Dec 2010
    โพสต์
    111,366
    Thanks
    7
    Thanked 116,807 Times in 53,167 Posts

    Angry [จีน] Master of Magic (2020) ปรมาจารย์จอมเวทย์ ( SUB TH ) [พากย์:SOUNTRACK][SUB:THAI][720p]




    Master of Magic (2020) ปรมาจารย์จอมเวทย์ ( SUB TH )
    เมื่อหมู่บ้านเล็กๆ ในเขตชายแดนถูกเหล่าอสูรรุกรานครั้งแล้วครั้งเล่า อู๋จิ่งจื่อจึงประกาศศึกเพื่อล้มล้างเหล่ามาร โดยเชิญเหล่าปราบมารให้มาช่วยเหลือ โดยมี อาฉี เมิ่งจู และศิษย์พี่ปู้เวยหลงที่หลงรักเมิ่งจู รวมทั้งคนอื่นๆ ทั้งหมดได้ร่วมกันเดินทางไปที่ถ้ำหยุนจ้าน ระหว่างทาง ทุกคนได้สกัดกั้นและต่อสู้กับเหล่าอสูรมากมายอย่างไม ่หยุดยั้ง แต่แล้วก็เกิดเหตุไม่คาดฝันขึ้น…

    ormat : MPEG-4
    Format profile : Base Media
    Codec ID : isom (isom/iso2/avc1/mp41)
    File size : 1.40 GiB
    Duration : 1 h 25 min
    Overall bit rate : 2 333 kb/s
    Writing application : Lavf58.26.101

    Video
    ID : 1
    Format : AVC
    Format/Info : Advanced Video Codec
    Format profile : [email protected]
    Format settings : CABAC / 4 Ref Frames
    Format settings, CABAC : Yes
    Format settings, Reference frames : 4 frames
    Codec ID : avc1
    Codec ID/Info : Advanced Video Coding
    Duration : 1 h 25 min
    Bit rate : 2 200 kb/s
    Width : 1 920 pixels
    Height : 1 080 pixels
    Display aspect ratio : 16:9
    Frame rate mode : Constant
    Frame rate : 24.000 FPS
    Color space : YUV
    Chroma subsampling : 4:2:0
    Bit depth : 8 bits
    Scan type : Progressive
    Bits/(Pixel*Frame) : 0.044
    Stream size : 1.32 GiB (94%)
    Title : ISO Media file produced by Google Inc. Created on: 01/14/2020.
    Writing library : x264 core 157
    Encoding settings : cabac=1 / ref=1 / deblock=1:0:0 / analyse=0x3:0x3 / me=dia / subme=1 / psy=1 / psy_rd=1.00:0.00 / mixed_ref=0 / me_range=16 / chroma_me=1 / trellis=0 / 8x8dct=1 / cqm=0 / deadzone=21,11 / fast_pskip=1 / chroma_qp_offset=0 / threads=7 / lookahead_threads=1 / sliced_threads=0 / nr=0 / decimate=1 / interlaced=0 / bluray_compat=0 / constrained_intra=0 / bframes=3 / b_pyramid=2 / b_adapt=1 / b_bias=0 / direct=1 / weightb=1 / open_gop=0 / weightp=1 / keyint=250 / keyint_min=24 / scenecut=40 / intra_refresh=0 / rc=2pass / mbtree=0 / bitrate=2200 / ratetol=1.0 / qcomp=0.60 / qpmin=0 / qpmax=69 / qpstep=4 / cplxblur=20.0 / qblur=0.5 / ip_ratio=1.40 / pb_ratio=1.30 / aq=1:1.00
    Codec configuration box : avcC

    Audio
    ID : 2
    Format : AAC LC
    Format/Info : Advanced Audio Codec Low Complexity
    Codec ID : mp4a-40-2
    Duration : 1 h 25 min
    Duration_LastFrame : -1 ms
    Bit rate mode : Constant
    Bit rate : 128 kb/s
    Channel(s) : 2 channels
    Channel layout : L R
    Sampling rate : 48.0 kHz
    Frame rate : 46.875 FPS (1024 SPF)
    Compression mode : Lossy
    Stream size : 78.5 MiB (5%)
    Title : ISO Media file produced by Google Inc. Created on: 01/14/2020.
    Default : Yes
    Alternate group : 1



    http://cornfile.com/602tl3rvozvc

  2. #2
    Senior Member
    สมัครเมื่อ
    Oct 2013
    โพสต์
    1,644
    Thanks
    0
    Thanked 0 Times in 0 Posts
    ขอบคุณครับ

+ ตอบกลับกระทู้

ข้อมูลกระทู้

Users Browsing this Thread

ในขณะนี้มี 1 ท่านดูกระทู้อยู่. (0 สมาชิกและ 1 ผู้เยี่ยมชม)

     

กฎการโพสต์ข้อความ

  • ท่าน ไม่สามารถ ตั้งกระทู้ใหม่ได้
  • ท่าน ไม่สามารถ ตอบกระทู้ได้
  • ท่าน ไม่สามารถ แนบไฟล์ได้
  • ท่าน ไม่สามารถ แก้ไขข้อความโพสต์ได้
  • BB code สถานะ เปิด
  • Smilies สถานะ เปิด
  • [IMG] สถานะ เปิด
  • HTML สถานะ ปิด