+ ตอบกลับกระทู้
สรุปผลการค้นหา 1 ถึง 2 จากทั้งหมด 2
  1. #1
    Administrators รูปส่วนตัว Duckload.us
    สมัครเมื่อ
    Dec 2010
    โพสต์
    111,366
    Thanks
    7
    Thanked 116,807 Times in 53,167 Posts

    Angry [ฝรั่ง]-((> x265<)) Beautiful Boy (2018) : แด่ลูกชายสุดที่รัก [พากย์ไทย 5.1 + เสียงอังกฤษ DTS-HD MA 5.1]-[บรรยายไทย + อังกฤษ]-[เสียงไทย + ซับไทย From MASTER + ซับ PGS คมชัด]



    Beautiful Boy_(2018)
    เรื่องราวของ นิค เชฟฟ์ (ทิโมธี ชาลาเมต์) เด็กหนุ่มผู้มีอนาคตไกล เขาเป็นทั้งเด็กที่เรียนเก่ง
    เป็นบรรณาธิการของหนังสือพิมพ์โรงเรียน เป็นนักวาดภาพ และเป็นนักกีฬา แต่ทุกสิ่งที่เขาสร้างกลับต้องพังทลายลง
    เพียงเพราะการยุ่งเกี่ยวกับยาเสพติด ท่ามกลางมรสุมของชีวิตที่กำลังกัดกินทั้งร่างกายและจ ิตใจของเขา
    มีเพียงความรักของคุณพ่อ เดวิด เชฟฟ์ (สตีฟ คาเรล) และครอบครัวเท่านั้นที่จะช่วยเยียวยาให้เขากลับมาเป็ นเหมือนเดิมได้!!!

    Format : Matroska
    Format version : Version 4
    File size : 10.7 GiB
    Duration : 2 h 1 min
    Overall bit rate mode : Variable
    Overall bit rate : 12.6 Mb/s
    Movie name : [email protected]aKraTos-Siambit

    Video
    ID : 1
    Format : HEVC
    Format/Info : High Efficiency Video Coding
    Format profile : Main [email protected]@High
    Codec ID : V_MPEGH/ISO/HEVC
    Duration : 2 h 0 min
    Bit rate : 8 079 kb/s
    Width : 1 920 pixels
    Height : 1 036 pixels
    Display aspect ratio : 1.85:1
    Frame rate mode : Constant
    Frame rate : 23.976 (24000/1001) FPS
    Color space : YUV
    Chroma subsampling : 4:2:0
    Bit depth : 10 bits
    Bits/(Pixel*Frame) : 0.169
    Stream size : 6.82 GiB (64%)
    Title : [email protected]aKraTos-Siambit
    Writing library : x265 - H.265/HEVC codec
    Language : English
    Default : Yes
    Forced : No

    Audio #1
    ID : 2
    Format : AC-3
    Format/Info : Audio Coding 3
    Commercial name : Dolby Digital
    Codec ID : A_AC3
    Duration : 2 h 1 min
    Bit rate mode : Constant
    Bit rate : 448 kb/s
    Channel(s) : 6 channels
    Channel layout : L R C LFE Ls Rs
    Sampling rate : 48.0 kHz
    Frame rate : 31.250 FPS (1536 SPF)
    Compression mode : Lossy
    Stream size : 388 MiB (4%)
    Title : Thai DVD Master
    Language : Thai
    Service kind : Complete Main
    Default : Yes
    Forced : Yes

    Audio #2
    ID : 3
    Format : DTS XLL
    Format/Info : Digital Theater Systems
    Commercial name : DTS-HD Master Audio
    Codec ID : A_DTS
    Duration : 2 h 0 min
    Bit rate mode : Variable
    Bit rate : 3 412 kb/s
    Channel(s) : 6 channels
    Channel layout : C L R Ls Rs LFE
    Sampling rate : 48.0 kHz
    Frame rate : 93.750 FPS (512 SPF)
    Bit depth : 24 bits
    Compression mode : Lossless
    Stream size : 2.88 GiB (27%)
    Title : English DTS-HD MA 5.1
    Language : English
    Default : No
    Forced : No

    Audio #3
    ID : 4
    Format : AC-3
    Format/Info : Audio Coding 3
    Commercial name : Dolby Digital
    Codec ID : A_AC3
    Duration : 2 h 0 min
    Bit rate mode : Constant
    Bit rate : 640 kb/s
    Channel(s) : 6 channels
    Channel layout : L R C LFE Ls Rs
    Sampling rate : 48.0 kHz
    Frame rate : 31.250 FPS (1536 SPF)
    Compression mode : Lossy
    Stream size : 553 MiB (5%)
    Title : English AC3 5.1
    Language : English
    Service kind : Complete Main
    Default : No
    Forced : No

    Text #1
    ID : 5
    Format : VobSub
    Muxing mode : zlib
    Codec ID : S_VOBSUB
    Codec ID/Info : Picture based subtitle format used on DVDs
    Duration : 2 h 0 min
    Bit rate : 2 950 b/s
    Count of elements : 1067
    Stream size : 2.54 MiB (0%)
    Title : Thai 720p
    Language : Thai
    Default : No
    Forced : No

    Text #2
    ID : 6
    Format : VobSub
    Muxing mode : zlib
    Codec ID : S_VOBSUB
    Codec ID/Info : Picture based subtitle format used on DVDs
    Duration : 2 h 0 min
    Bit rate : 4 804 b/s
    Count of elements : 1067
    Stream size : 4.13 MiB (0%)
    Title : Thai 1080p
    Language : Thai
    Default : Yes
    Forced : Yes

    Text #3
    ID : 7
    Format : VobSub
    Muxing mode : zlib
    Codec ID : S_VOBSUB
    Codec ID/Info : Picture based subtitle format used on DVDs
    Duration : 2 h 0 min
    Bit rate : 4 813 b/s
    Count of elements : 1067
    Stream size : 4.14 MiB (0%)
    Title : Thai 1080p Yellow
    Language : Thai
    Default : No
    Forced : No

    Text #4
    ID : 8
    Format : VobSub
    Muxing mode : zlib
    Codec ID : S_VOBSUB
    Codec ID/Info : Picture based subtitle format used on DVDs
    Duration : 2 h 0 min
    Bit rate : 6 309 b/s
    Count of elements : 1067
    Stream size : 5.42 MiB (0%)
    Title : Thai 1080p BIG
    Language : Thai
    Default : No
    Forced : No

    Text #5
    ID : 9
    Format : PGS
    Muxing mode : zlib
    Codec ID : S_HDMV/PGS
    Codec ID/Info : Picture based subtitle format used on BDs/HD-DVDs
    Duration : 2 h 0 min
    Bit rate : 15.4 kb/s
    Count of elements : 2134
    Stream size : 13.3 MiB (0%)
    Title : Thai PGS
    Language : Thai
    Default : No
    Forced : No

    Text #6
    ID : 10
    Format : PGS
    Muxing mode : zlib
    Codec ID : S_HDMV/PGS
    Codec ID/Info : Picture based subtitle format used on BDs/HD-DVDs
    Duration : 2 h 0 min
    Bit rate : 15.8 kb/s
    Count of elements : 2134
    Stream size : 13.6 MiB (0%)
    Title : Thai PGS Yellow
    Language : Thai
    Default : No
    Forced : No

    Text #7
    ID : 11
    Format : PGS
    Muxing mode : zlib
    Codec ID : S_HDMV/PGS
    Codec ID/Info : Picture based subtitle format used on BDs/HD-DVDs
    Duration : 2 h 0 min
    Bit rate : 5 235 b/s
    Count of elements : 3946
    Stream size : 4.51 MiB (0%)
    Title : English
    Language : English
    Default : No
    Forced : No

    Menu
    00:00:00.000 : en:00:00:00.000
    00:15:41.899 : en:00:15:41.899
    00:30:48.847 : en:00:30:48.847
    00:44:45.933 : en:00:44:45.933
    01:00:38.593 : en:01:00:38.593
    01:18:15.524 : en:01:18:15.524
    01:36:07.470 : en:01:36:07.470
    01:51:04.199 : en:01:51:04.199













    http://cornfile.com/ckuf4wv3ibfz

  2. #2
    Senior Member
    สมัครเมื่อ
    Jun 2014
    โพสต์
    2,612
    Thanks
    0
    Thanked 0 Times in 0 Posts
    ขอบคุณครับ

+ ตอบกลับกระทู้

ข้อมูลกระทู้

Users Browsing this Thread

ในขณะนี้มี 1 ท่านดูกระทู้อยู่. (0 สมาชิกและ 1 ผู้เยี่ยมชม)

     

กฎการโพสต์ข้อความ

  • ท่าน ไม่สามารถ ตั้งกระทู้ใหม่ได้
  • ท่าน ไม่สามารถ ตอบกระทู้ได้
  • ท่าน ไม่สามารถ แนบไฟล์ได้
  • ท่าน ไม่สามารถ แก้ไขข้อความโพสต์ได้
  • BB code สถานะ เปิด
  • Smilies สถานะ เปิด
  • [IMG] สถานะ เปิด
  • HTML สถานะ ปิด