+ ตอบกลับกระทู้
สรุปผลการค้นหา 1 ถึง 4 จากทั้งหมด 4
  1. #1
    Administrators รูปส่วนตัว Duckload.us
    สมัครเมื่อ
    Dec 2010
    โพสต์
    112,806
    Thanks
    7
    Thanked 118,668 Times in 53,694 Posts

    Question [ฝรั่ง] • [*ใหม่*] Togo (2019) โทโก้ • [เสียงอังกฤษ 5.1] • [บรรยายไทย + อังกฤษ] • [From Disney+ 1080p] "สร้างจากเรื่องจริง หนังดีค่ายดิสนีย์ที่ไม่ได้เข้าฉายในไทย นักแสดงนำ : วิลเลี่ยม เดโฟ"





    ในปี ค.ศ 1925 (พ.ศ.2468) เกิดการระบาดของโรคคอตีบสร้างความอลม่านขึ้นใน เมืองโนม รัฐอลาสก้า ไวรัสส่วนใหญ่ทำให้เด็กๆในเมืองเดือดร้อน ในขณะที่เซรุ่มที่ใช้รักษาโรคนี้อยู่ห่างเกือบ 700 ไมล์ มิหนำซ้ำในสภาวะหน้าสิ่วหน้าขวานดันเกิดมีพายุลูกใหญ ่เข้ามาอีก ทำให้การไปเอาเซรุ่มเพื่อกลับมารักษาพวกเด็กๆแทบจะเป ็นไปไม่ได้เลย ความหวังทั้งหมดจึงพุ่งตรงไปที่ Leonhard Seppala (Willem Dafoe) และ สุนัขลากเลื่อนที่ชื่อ Togo ของเขาเพื่อการเดินทางเร็วที่สุดเท่าที่จะทำได้

    Format : Matroska
    Format version : Version 4
    File size : 7.38 GiB
    Duration : 1 h 53 min
    Overall bit rate mode : Variable
    Overall bit rate : 9 298 kb/s
    Encoded date : UTC 2020-02-16 07:03:16
    Writing application : mkvmerge v43.0.0 ('The Quartermaster') 64-bit
    Writing library : libebml v1.3.10 + libmatroska v1.5.2

    Video
    ID : 1
    Format : AVC
    Format/Info : Advanced Video Codec
    Format profile : [email protected]
    Format settings : CABAC / 4 Ref Frames
    Format settings, CABAC : Yes
    Format settings, Reference frames : 4 frames
    Codec ID : V_MPEG4/ISO/AVC
    Duration : 1 h 53 min
    Bit rate mode : Variable
    Bit rate : 8 439 kb/s
    Maximum bit rate : 12.7 Mb/s
    Width : 1 920 pixels
    Height : 1 080 pixels
    Display aspect ratio : 16:9
    Frame rate mode : Constant
    Frame rate : 23.976 (24000/1001) FPS
    Color space : YUV
    Chroma subsampling : 4:2:0
    Bit depth : 8 bits
    Scan type : Progressive
    Bits/(Pixel*Frame) : 0.170
    Stream size : 6.70 GiB (91%)
    Default : Yes
    Forced : No
    Color range : Limited
    Color primaries : BT.709
    Transfer characteristics : BT.709
    Matrix coefficients : BT.709

    Audio
    ID : 2
    Format : E-AC-3 JOC
    Format/Info : Enhanced AC-3 with Joint Object Coding
    Commercial name : Dolby Digital Plus with Dolby Atmos
    Codec ID : A_EAC3
    Duration : 1 h 53 min
    Bit rate mode : Constant
    Bit rate : 768 kb/s
    Channel(s) : 6 channels
    Channel layout : L R C LFE Ls Rs
    Sampling rate : 48.0 kHz
    Frame rate : 31.250 FPS (1536 SPF)
    Compression mode : Lossy
    Stream size : 622 MiB (8%)
    Title : English
    Language : English
    Service kind : Complete Main
    Default : Yes
    Forced : No
    Complexity index : 16
    Number of dynamic objects : 15
    Bed channel count : 1 channel
    Bed channel configuration : LFE

    Text #1
    ID : 3
    Format : PGS
    Muxing mode : zlib
    Codec ID : S_HDMV/PGS
    Codec ID/Info : Picture based subtitle format used on BDs/HD-DVDs
    Duration : 1 h 44 min
    Bit rate : 26.2 kb/s
    Count of elements : 1728
    Stream size : 19.5 MiB (0%)
    Title : Thai PGS White
    Language : Thai
    Default : Yes
    Forced : No

    Text #2
    ID : 4
    Format : PGS
    Muxing mode : zlib
    Codec ID : S_HDMV/PGS
    Codec ID/Info : Picture based subtitle format used on BDs/HD-DVDs
    Duration : 1 h 44 min
    Bit rate : 26.2 kb/s
    Count of elements : 1728
    Stream size : 19.5 MiB (0%)
    Title : Thai PGS Gray
    Language : Thai
    Default : No
    Forced : No

    Text #3
    ID : 5
    Format : PGS
    Muxing mode : zlib
    Codec ID : S_HDMV/PGS
    Codec ID/Info : Picture based subtitle format used on BDs/HD-DVDs
    Duration : 1 h 44 min
    Bit rate : 33.0 kb/s
    Count of elements : 1728
    Stream size : 24.6 MiB (0%)
    Title : Thai PGS BIG White
    Language : Thai
    Default : No
    Forced : No

    Text #4
    ID : 6
    Format : PGS
    Muxing mode : zlib
    Codec ID : S_HDMV/PGS
    Codec ID/Info : Picture based subtitle format used on BDs/HD-DVDs
    Duration : 1 h 44 min
    Bit rate : 33.0 kb/s
    Count of elements : 1728
    Stream size : 24.6 MiB (0%)
    Title : Thai PGS BIG Gray
    Language : Thai
    Default : No
    Forced : No

    Text #5
    ID : 7
    Format : PGS
    Muxing mode : zlib
    Codec ID : S_HDMV/PGS
    Codec ID/Info : Picture based subtitle format used on BDs/HD-DVDs
    Duration : 1 h 44 min
    Bit rate : 21.5 kb/s
    Count of elements : 1728
    Stream size : 16.0 MiB (0%)
    Title : Thai PGS Small White
    Language : Thai
    Default : No
    Forced : No

    Text #6
    ID : 8
    Format : PGS
    Muxing mode : zlib
    Codec ID : S_HDMV/PGS
    Codec ID/Info : Picture based subtitle format used on BDs/HD-DVDs
    Duration : 1 h 44 min
    Bit rate : 21.5 kb/s
    Count of elements : 1728
    Stream size : 16.0 MiB (0%)
    Title : Thai PGS Small Gray
    Language : Thai
    Default : No
    Forced : No

    Text #7
    ID : 9
    Format : PGS
    Muxing mode : zlib
    Codec ID : S_HDMV/PGS
    Codec ID/Info : Picture based subtitle format used on BDs/HD-DVDs
    Duration : 1 h 44 min
    Bit rate : 26.2 kb/s
    Count of elements : 1728
    Stream size : 19.5 MiB (0%)
    Title : Thai PGS Out White
    Language : Thai
    Default : No
    Forced : No

    Text #8
    ID : 10
    Format : PGS
    Muxing mode : zlib
    Codec ID : S_HDMV/PGS
    Codec ID/Info : Picture based subtitle format used on BDs/HD-DVDs
    Duration : 1 h 44 min
    Bit rate : 26.2 kb/s
    Count of elements : 1728
    Stream size : 19.5 MiB (0%)
    Title : Thai PGS Out Gray
    Language : Thai
    Default : No
    Forced : No

    Text #9
    ID : 11
    Format : UTF-8
    Codec ID : S_TEXT/UTF8
    Codec ID/Info : UTF-8 Plain Text
    Duration : 1 h 42 min
    Bit rate : 38 b/s
    Count of elements : 1051
    Stream size : 28.6 KiB (0%)
    Title : English (SDH)
    Language : English
    Default : No
    Forced : No





    Download: cornfile
    http://cornfile.com/3z0smt58zk5f
    Download: mekafile
    Togo (2019) โทโก้.part1.rar
    http://www.mekafile.com/dl.php?f=r0825dc5n0u4
    Togo (2019) โทโก้.part2.rar
    http://www.mekafile.com/dl.php?f=5R0b0ac5n0VX
    Togo (2019) โทโก้.part3.rar
    http://www.mekafile.com/dl.php?f=LXaed7c5n160
    Togo (2019) โทโก้.part4.rar
    http://www.mekafile.com/dl.php?f=RC6f4ac5n1lA
    Togo (2019) โทโก้.part5.rar
    http://www.mekafile.com/dl.php?f=oI7388c5n1tg

    1.2 GB
    http://cornfile.com/vk5lnbh9ouqt
    http://www.mekafile.com/dl.php?f=4z0d7ac5oMkC

    3.5GB
    http://www.mekafile.com/dl.php?f=Op9d57c5rBnT
    http://cornfile.com/afw9wcvm0hwl

  2. The Following 5 Users Say Thank You to Duckload.us For This Useful Post:

    amorn wichian (02-16-2020), bigbang06 (02-17-2020), smakha (02-17-2020), Tatum03 (02-16-2020), Wesker_TOT (02-17-2020)

  3. #2
    Senior Member
    สมัครเมื่อ
    Oct 2013
    ที่อยู่
    Thailand
    โพสต์
    1,292
    Thanks
    1,163
    Thanked 0 Times in 0 Posts
    ขอบคุณมาก

  4. #3
    Senior Member
    สมัครเมื่อ
    Dec 2013
    โพสต์
    2,036
    Thanks
    3,957
    Thanked 0 Times in 0 Posts
    ขอบคุณนะครับ...

  5. #4
    Senior Member
    สมัครเมื่อ
    Oct 2012
    ที่อยู่
    Thailand
    โพสต์
    733
    Thanks
    2,536
    Thanked 13 Times in 6 Posts
    ขอบคุณมาก เยี่ยมมมม

+ ตอบกลับกระทู้

ข้อมูลกระทู้

Users Browsing this Thread

ในขณะนี้มี 1 ท่านดูกระทู้อยู่. (0 สมาชิกและ 1 ผู้เยี่ยมชม)

     

กฎการโพสต์ข้อความ

  • ท่าน ไม่สามารถ ตั้งกระทู้ใหม่ได้
  • ท่าน ไม่สามารถ ตอบกระทู้ได้
  • ท่าน ไม่สามารถ แนบไฟล์ได้
  • ท่าน ไม่สามารถ แก้ไขข้อความโพสต์ได้
  • BB code สถานะ เปิด
  • Smilies สถานะ เปิด
  • [IMG] สถานะ เปิด
  • HTML สถานะ ปิด