+ ตอบกลับกระทู้
สรุปผลการค้นหา 1 ถึง 6 จากทั้งหมด 6
  1. #1
    Administrators รูปส่วนตัว Duckload.us
    สมัครเมื่อ
    Dec 2010
    โพสต์
    112,787
    Thanks
    7
    Thanked 118,648 Times in 53,690 Posts

    Question (ฝรั่ง.ใหม่.ไทยมาสเตอร์)-Midway (2019) อเมริกาถล่มญี่ปุ่น-[BluRay.1080p][Sound:Eng 5.1/Thai AC3 2.0:Master][SUB:Eng/Thai.PGS]



    จากวีรกรรมแห่งหน้าประวัติศาสตร์ Midway ที่งานนี้จะบอกเล่าถึงเรื่องราวของ “ยุทธการมิดเวย์” ซึ่งว่ากันว่าเป็น ยุทธการที่สำคัญที่สุดในแนวรบด้านมหาสมุทรแปซิฟิก ของช่วงสงครามโลกครั้งที่ 2 ด้วยการปะทะกันแบบ 360 องศาของกองทัพสหรัฐอเมริกาที่กินเวลาเพียง 4 วันแต่กลับเป็นจุดเปลี่ยนเกมรบของสงครามโลกครั้งที่ 2 ไปตลอดกาล

    Format : Matroska
    Format version : Version 4
    File size : 4.90 GiB
    Duration : 2 h 18 min
    Overall bit rate : 5 067 kb/s
    Encoded date : UTC 2020-02-20 09:20:05
    Writing application : mkvmerge v40.0.0 ('Old Town Road + Pony') 64-bit
    Writing library : libebml v1.3.9 + libmatroska v1.5.2

    Video
    ID : 3
    Format : AVC
    Format/Info : Advanced Video Codec
    Format profile : [email protected]
    Format settings : CABAC / 5 Ref Frames
    Format settings, CABAC : Yes
    Format settings, Reference frames : 5 frames
    Codec ID : V_MPEG4/ISO/AVC
    Duration : 2 h 18 min
    Bit rate : 4 458 kb/s
    Width : 1 920 pixels
    Height : 798 pixels
    Display aspect ratio : 2.40:1
    Frame rate mode : Constant
    Frame rate : 23.976 FPS
    Color space : YUV
    Chroma subsampling : 4:2:0
    Bit depth : 8 bits
    Scan type : Progressive
    Bits/(Pixel*Frame) : 0.121
    Stream size : 4.31 GiB (88%)
    Language : English
    Default : Yes
    Forced : No
    Color range : Limited
    Color primaries : BT.709
    Transfer characteristics : BT.709
    Matrix coefficients : BT.709

    Audio #1
    ID : 2
    Format : AC-3
    Format/Info : Audio Coding 3
    Commercial name : Dolby Digital
    Codec ID : A_AC3
    Duration : 2 h 18 min
    Bit rate mode : Constant
    Bit rate : 384 kb/s
    Channel(s) : 6 channels
    Channel layout : L R C LFE Ls Rs
    Sampling rate : 48.0 kHz
    Frame rate : 31.250 FPS (1536 SPF)
    Bit depth : 16 bits
    Compression mode : Lossy
    Delay relative to video : -42 ms
    Stream size : 380 MiB (8%)
    Language : English
    Service kind : Complete Main
    Default : No
    Forced : No

    Audio #2
    ID : 4
    Format : AAC LC
    Format/Info : Advanced Audio Codec Low Complexity
    Codec ID : A_AAC-2
    Duration : 2 h 18 min
    Bit rate : 223 kb/s
    Channel(s) : 2 channels
    Channel layout : L R
    Sampling rate : 44.1 kHz
    Frame rate : 43.066 FPS (1024 SPF)
    Compression mode : Lossy
    Delay relative to video : -42 ms
    Stream size : 221 MiB (4%)
    Title : เสียงไทย มาสเตอร์ โดย ดีเจ อาท
    Language : Thai
    Default : Yes
    Forced : Yes

    Text
    ID : 1
    Format : UTF-8
    Codec ID : S_TEXT/UTF8
    Codec ID/Info : UTF-8 Plain Text
    Duration : 2 h 8 min
    Bit rate : 62 b/s
    Count of elements : 1640
    Stream size : 58.6 KiB (0%)
    Language : English
    Default : Yes
    Forced : No

    Menu
    00:00:00.000 : en:1
    00:05:51.000 : en:2
    00:17:04.000 : en:3
    00:26:00.000 : en:4
    00:34:21.000 : en:5
    00:46:13.000 : en:6
    00:56:03.000 : en:7
    01:04:57.000 : en:8
    01:14:27.000 : en:9
    01:24:48.000 : en:10
    01:31:50.000 : en:11
    01:43:24.000 : en:12
    01:56:08.000 : en:13
    02:09:11.000 : en:14






    Download: cornfile
    4.9 GB http://cornfile.com/l3mbkmlybg3b
    4.0 GB http://cornfile.com/dgl0hjxn2k3n
    Download: mekafile
    http://www.mekafile.com/dl.php?f=yL9801c5zoB6

  2. The Following 5 Users Say Thank You to Duckload.us For This Useful Post:

    bigbang06 (02-20-2020), jangska (02-21-2020), noi54 (02-21-2020), Tatum03 (02-20-2020), Wesker_TOT (02-20-2020)

  3. #2
    Senior Member
    สมัครเมื่อ
    Dec 2013
    โพสต์
    2,036
    Thanks
    3,957
    Thanked 0 Times in 0 Posts
    ขอบคุณครับ...

  4. #3
    Senior Member
    สมัครเมื่อ
    Jun 2014
    โพสต์
    3,094
    Thanks
    0
    Thanked 0 Times in 0 Posts
    ขอบคุณครับ

  5. #4
    Senior Member
    สมัครเมื่อ
    Oct 2013
    ที่อยู่
    Thailand
    โพสต์
    1,290
    Thanks
    1,161
    Thanked 0 Times in 0 Posts
    ขอบคุณมาก

  6. #5
    Senior Member
    สมัครเมื่อ
    Jul 2012
    โพสต์
    6,614
    Thanks
    0
    Thanked 0 Times in 0 Posts
    ขอบคุณมากจ้า

  7. #6
    Senior Member
    สมัครเมื่อ
    Jul 2013
    โพสต์
    327
    Thanks
    0
    Thanked 0 Times in 0 Posts
    ขอบคุณครับ

+ ตอบกลับกระทู้

ข้อมูลกระทู้

Users Browsing this Thread

ในขณะนี้มี 1 ท่านดูกระทู้อยู่. (0 สมาชิกและ 1 ผู้เยี่ยมชม)

     

กฎการโพสต์ข้อความ

  • ท่าน ไม่สามารถ ตั้งกระทู้ใหม่ได้
  • ท่าน ไม่สามารถ ตอบกระทู้ได้
  • ท่าน ไม่สามารถ แนบไฟล์ได้
  • ท่าน ไม่สามารถ แก้ไขข้อความโพสต์ได้
  • BB code สถานะ เปิด
  • Smilies สถานะ เปิด
  • [IMG] สถานะ เปิด
  • HTML สถานะ ปิด