+ ตอบกลับกระทู้
สรุปผลการค้นหา 1 ถึง 2 จากทั้งหมด 2
  1. #1
    Administrators รูปส่วนตัว Duckload.us
    สมัครเมื่อ
    Dec 2010
    โพสต์
    112,806
    Thanks
    7
    Thanked 118,664 Times in 53,694 Posts

    Question [ฝรั่ง]-ใหม่!!!*** Code 8 : ล่าคนโคตรพลัง *** ภาพชัดแจ่ม บรรยายอังกฤษ โมดิฟายด์เสียงไทยโรง -Blu-ray.H.264.1080p. [Modified]-[พากย์ไทยโรง]



    ภาพยนตร์แนวดราม่าเกี่ยวกับหนังสยองขวัญทางวิทยาศาสต ร์ของประเทศแคนาดา
    ชื่อภาพยนตร์ : Code 8 ล่าคนโคตรพลัง
    ประเภท : Crime, Drama, Sci-Fi
    ผู้กำกับภาพยนตร์ : Jeff Chan
    บทภาพยนตร์ : Jeff Chan, Chris Pare
    นักแสดง : Robbie Amell, Laysla De Oliveira, Stephen Amell, Sung Kang, Kari Matchett, Greg Bryk, Peter Outerbridge, Karissa Strain, Martin Roach, Aaron Abrams, Natalie Lisinska, Alex Mallari Jr., Shaun Benson, Kyla Kane, Sarah Hödlmoser,
    วันที่เข้าฉายในไทย : 20 กุมภาพันธ์ 2563

    เรื่องย่อ : Code 8 (2019) ล่าคนโคตรพลัง
    ในโลกที่ประชากร 4% เกิดมาพร้อมความสามารถพิเศษเหนือธรรมชาติ แต่ใช่ว่าพวกเขาจะกลายเป็นมหาเศรษฐรหรือซุปเปอร์ฮีโร ่ พวกเขากลับถูกสังคมกดขี่ต้องให้ใช้ชีวิตอยู่อย่างอดอ ยาก เรื่องเริ่มขึ้นเมื่อชายคนหนึ่ง
    คอนเนอร์ รี้ด (ร็อบบี้ อาเมล) ชายหนุ่มผู้มีพลังอำนาจมหาศาลต้องดิ้นรนต่อสู้เพื่อห าเงินมารักษาแม่ที่กำลังป่วยเข้าต้องเข้าไปพัวพันในโ ลกของเหล่าอาชญากรที่มี การ์เร็ตต์ (สตีเฟ่น อเมลล์) เป็นผู้นำ แม้หลายคนบนโลกความสามารถพิเศษเหนือธรรมชาติ ซึ่งนั่นคือ 4 เปอร์เซ็นต์ของประชากรทั้งหมด แต่พวกเขาไม่สามารถใช้ความสามารถพิเศษเหนือธรรมชาติน ี้เพื่อความสุขสบายแทนที่จะกลายมาเป็นมหาเศรษฐีหรือซ ูเปอร์ฮีโร่ พวกมนุษย์พิเศษส่วนใหญ่กลับต้องเผชิญหน้ากับการแบ่งแ ยกพวกเขาต้องใช้ชีวิตอยู่ด้วยความอัตคัดขัดสนและการห นีจากการถูกตามล่า

    Format : Matroska
    Format version : Version 4
    File size : 4.71 GiB
    Duration : 1 h 38 min
    Overall bit rate : 6 865 kb/s
    Movie name : Encoded By realDMDJ
    Encoded date : UTC 2020-02-20 18:23:44
    Writing application : mkvmerge v40.0.0 ('Old Town Road + Pony') 64-bit
    Writing library : libebml v1.3.9 + libmatroska v1.5.2

    Video
    ID : 1
    Format : AVC
    Format/Info : Advanced Video Codec
    Format profile : [email protected]
    Format settings : CABAC / 1 Ref Frames
    Format settings, CABAC : Yes
    Format settings, Reference frames : 1 frame
    Codec ID : V_MPEG4/ISO/AVC
    Duration : 1 h 38 min
    Bit rate : 5 991 kb/s
    Width : 1 920 pixels
    Height : 800 pixels
    Display aspect ratio : 2.40:1
    Frame rate mode : Constant
    Frame rate : 23.976 (24000/1001) FPS
    Color space : YUV
    Chroma subsampling : 4:2:0
    Bit depth : 8 bits
    Scan type : Progressive
    Bits/(Pixel*Frame) : 0.163
    Stream size : 4.11 GiB (87%)
    Default : Yes
    Forced : No
    Color range : Limited
    Color primaries : BT.709
    Transfer characteristics : BT.709
    Matrix coefficients : BT.709

    Audio #1
    ID : 2
    Format : AAC LC
    Format/Info : Advanced Audio Codec Low Complexity
    Codec ID : A_AAC-2
    Duration : 1 h 38 min
    Bit rate : 231 kb/s
    Channel(s) : 2 channels
    Channel layout : L R
    Sampling rate : 44.1 kHz
    Frame rate : 43.066 FPS (1024 SPF)
    Compression mode : Lossy
    Stream size : 163 MiB (3%)
    Title : เสียงไทยโรง
    Language : Thai
    Default : Yes
    Forced : Yes

    Audio #2
    ID : 3
    Format : AC-3
    Format/Info : Audio Coding 3
    Commercial name : Dolby Digital
    Codec ID : A_AC3
    Duration : 1 h 38 min
    Bit rate mode : Constant
    Bit rate : 640 kb/s
    Channel(s) : 6 channels
    Channel layout : L R C LFE Ls Rs
    Sampling rate : 48.0 kHz
    Frame rate : 31.250 FPS (1536 SPF)
    Bit depth : 16 bits
    Compression mode : Lossy
    Stream size : 450 MiB (9%)
    Language : English
    Service kind : Complete Main
    Default : No
    Forced : No

    Text
    ID : 4
    Format : UTF-8
    Codec ID : S_TEXT/UTF8
    Codec ID/Info : UTF-8 Plain Text
    Duration : 1 h 30 min
    Bit rate : 51 b/s
    Count of elements : 1231
    Stream size : 33.8 KiB (0%)
    Title : บรรยายอังกฤษ
    Language : English
    Default : No
    Forced : No






    Download: cornfile
    http://cornfile.com/mq6ix2vd4at1
    Download: mekafile
    http://www.mekafile.com/dl.php?f=wab012c5ziay
    or
    http://cornfile.com/d2epuzi4oczc
    http://www.mekafile.com/dl.php?f=jgd8a2c5zoHq

  2. #2
    Senior Member
    สมัครเมื่อ
    Jun 2014
    โพสต์
    3,105
    Thanks
    0
    Thanked 0 Times in 0 Posts
    ขอบคุณครับ

+ ตอบกลับกระทู้

ข้อมูลกระทู้

Users Browsing this Thread

ในขณะนี้มี 1 ท่านดูกระทู้อยู่. (0 สมาชิกและ 1 ผู้เยี่ยมชม)

     

กฎการโพสต์ข้อความ

  • ท่าน ไม่สามารถ ตั้งกระทู้ใหม่ได้
  • ท่าน ไม่สามารถ ตอบกระทู้ได้
  • ท่าน ไม่สามารถ แนบไฟล์ได้
  • ท่าน ไม่สามารถ แก้ไขข้อความโพสต์ได้
  • BB code สถานะ เปิด
  • Smilies สถานะ เปิด
  • [IMG] สถานะ เปิด
  • HTML สถานะ ปิด