+ ตอบกลับกระทู้
สรุปผลการค้นหา 1 ถึง 2 จากทั้งหมด 2
  1. #1
    Administrators รูปส่วนตัว Duckload.us
    สมัครเมื่อ
    Dec 2010
    โพสต์
    112,821
    Thanks
    7
    Thanked 118,681 Times in 53,701 Posts

    Question [ฝรั่ง]-Midway (2019) มิดเวย์ อเมริกาถล่มญี่ปุ่น - [พากย์ไทย+อังกฤษ] [บรรยายไทย+อังกฤษ] 1080p.10bit.BluRay.8CH.x265.HEVC



    จากวีรกรรมแห่งหน้าประวัติศาสตร์ ที่งานนี้จะบอกเล่าถึงเรื่องราวของ “ยุทธการมิดเวย์” ซึ่งว่ากันว่าเป็น ยุทธการที่สำคัญที่สุดในแนวรบด้านมหาสมุทรแปซิฟิก ของช่วงสงครามโลกครั้งที่ 2 ด้วยการปะทะกันแบบ 360 องศาของกองทัพสหรัฐอเมริกาที่กินเวลาเพียง 4 วันแต่กลับเป็นจุดเปลี่ยนเกมรบของสงครามโลกครั้งที่ 2 ไปตลอดกาล


    Duration : 2 h 18 min
    Overall bit rate : 3 614 kb/s
    Encoded date : UTC 2020-02-21 02:52:37
    Writing application : mkvmerge v43.0.0 ('The Quartermaster') 64-bit
    Writing library : libebml v1.3.10 + libmatroska v1.5.2
    Cover : Yes
    Attachments : cover

    Video
    ID : 1
    Format : HEVC
    Format/Info : High Efficiency Video Coding
    Format profile : Main [email protected]@Main
    Codec ID : V_MPEGH/ISO/HEVC
    Duration : 2 h 18 min
    Bit rate : 2 824 kb/s
    Width : 1 920 pixels
    Height : 808 pixels
    Display aspect ratio : 2.40:1
    Frame rate mode : Constant
    Frame rate : 23.976 (24000/1001) FPS
    Color space : YUV
    Chroma subsampling : 4:2:0
    Bit depth : 10 bits
    Bits/(Pixel*Frame) : 0.076
    Stream size : 2.73 GiB (78%)
    Default : Yes
    Forced : No

    Audio #1
    ID : 2
    Format : AAC LC SBR
    Format/Info : Advanced Audio Codec Low Complexity with Spectral Band Replication
    Commercial name : HE-AAC
    Format settings : Explicit
    Codec ID : A_AAC-2
    Duration : 2 h 18 min
    Bit rate : 306 kb/s
    Channel(s) : 8 channels
    Channel layout : C L R Ls Rs Lb Rb LFE
    Sampling rate : 48.0 kHz
    Frame rate : 23.438 FPS (2048 SPF)
    Compression mode : Lossy
    Delay relative to video : 31 ms
    Stream size : 303 MiB (8%)
    Language : English
    Default : No
    Forced : No

    Audio #2
    ID : 3
    Format : AAC LC SBR
    Format/Info : Advanced Audio Codec Low Complexity with Spectral Band Replication
    Commercial name : HE-AAC
    Format settings : Explicit
    Codec ID : A_AAC-2
    Duration : 2 h 18 min
    Bit rate : 384 kb/s
    Channel(s) : 6 channels
    Channel layout : C L R Ls Rs LFE
    Sampling rate : 48.0 kHz
    Frame rate : 23.438 FPS (2048 SPF)
    Compression mode : Lossy
    Stream size : 379 MiB (11%)
    Language : Thai
    Default : Yes
    Forced : No

    Text #1
    ID : 4
    Format : PGS
    Muxing mode : zlib
    Codec ID : S_HDMV/PGS
    Codec ID/Info : Picture based subtitle format used on BDs/HD-DVDs
    Duration : 2 h 8 min
    Bit rate : 45.6 kb/s
    Count of elements : 3524
    Stream size : 41.8 MiB (1%)
    Title : Gray
    Language : English
    Default : Yes
    Forced : No

    Text #2
    ID : 5
    Format : PGS
    Muxing mode : zlib
    Codec ID : S_HDMV/PGS
    Codec ID/Info : Picture based subtitle format used on BDs/HD-DVDs
    Duration : 2 h 8 min
    Bit rate : 45.6 kb/s
    Count of elements : 3524
    Stream size : 41.8 MiB (1%)
    Title : White
    Language : English
    Default : No
    Forced : No

    Text #3
    ID : 6
    Format : PGS
    Muxing mode : zlib
    Codec ID : S_HDMV/PGS
    Codec ID/Info : Picture based subtitle format used on BDs/HD-DVDs
    Duration : 2 h 8 min
    Bit rate : 45.6 kb/s
    Count of elements : 3524
    Stream size : 41.8 MiB (1%)
    Title : Yellow
    Language : English
    Default : No
    Forced : No

    Text #4
    ID : 7
    Format : PGS
    Muxing mode : zlib
    Codec ID : S_HDMV/PGS
    Codec ID/Info : Picture based subtitle format used on BDs/HD-DVDs
    Duration : 2 h 8 min
    Bit rate : 31.8 kb/s
    Count of elements : 2978
    Stream size : 29.3 MiB (1%)
    Title : Gray
    Language : Thai
    Default : No
    Forced : No

    Text #5
    ID : 8
    Format : PGS
    Muxing mode : zlib
    Codec ID : S_HDMV/PGS
    Codec ID/Info : Picture based subtitle format used on BDs/HD-DVDs
    Duration : 2 h 8 min
    Bit rate : 31.8 kb/s
    Count of elements : 2978
    Stream size : 29.3 MiB (1%)
    Title : White
    Language : Thai
    Default : No
    Forced : No

    Text #6
    ID : 9
    Format : PGS
    Muxing mode : zlib
    Codec ID : S_HDMV/PGS
    Codec ID/Info : Picture based subtitle format used on BDs/HD-DVDs
    Duration : 2 h 8 min
    Bit rate : 31.8 kb/s
    Count of elements : 2978
    Stream size : 29.3 MiB (1%)
    Title : Yellow
    Language : Thai
    Default : No
    Forced : No




    Download: cornfile
    http://cornfile.com/rnl1apuwgz0l
    Download: mekafile
    http://www.mekafile.com/dl.php?f=mv38b5c5zAkq

  2. The Following User Says Thank You to Duckload.us For This Useful Post:

    jackjangri (02-22-2020)

  3. #2
    Senior Member
    สมัครเมื่อ
    Jun 2014
    โพสต์
    3,120
    Thanks
    0
    Thanked 0 Times in 0 Posts
    ขอบคุณครับ

+ ตอบกลับกระทู้

ข้อมูลกระทู้

Users Browsing this Thread

ในขณะนี้มี 1 ท่านดูกระทู้อยู่. (0 สมาชิกและ 1 ผู้เยี่ยมชม)

     

กฎการโพสต์ข้อความ

  • ท่าน ไม่สามารถ ตั้งกระทู้ใหม่ได้
  • ท่าน ไม่สามารถ ตอบกระทู้ได้
  • ท่าน ไม่สามารถ แนบไฟล์ได้
  • ท่าน ไม่สามารถ แก้ไขข้อความโพสต์ได้
  • BB code สถานะ เปิด
  • Smilies สถานะ เปิด
  • [IMG] สถานะ เปิด
  • HTML สถานะ ปิด