หลังจากการชิงอำนาจเกิดขึ้น ราชวงศ์หมิง (ชาวฮั่น) ได้อพยบไปอยู่ในหุบเขามังกร ที่นั้นพวกเขาฝึกฝนฝีมือโดยหวังที่จะคืนความรุ่งโรจน ์ให้กับประเทศของพวกเขา แล้ววันนึง องค์หญิงองค์สุดท้ายแห่งราชวงค์หมิง ได้รับมอบหมายจากอาจารย์ ให้เข้าไปตีสนิทกับ คังซี จักรพรรดิของราชวงศ์ชิง เพื่อหาโอกาสแก้แค้น แต่หลังจากที่ได้ใช้เวลาอยู่ด้วยกัน พวกเขากลับตกหลุมรักซึ่งกันและกัน จากภาระกิจล้างแค้นกลายเป็นภาระกิจรัก ที่ทั้งคู่จะต้องฟันฝ่าอุปสรรคต่างๆ ทั้งเรื่องชาติกำเนิดของทั้งคู่ ที่คอยจ้องจะห่ำหั่นกันอยู่ตลอดเวลา แล้วสุดท้ายเรื่องราวของทั้งคู่จะจบลงเช่นไร ติดตามกันได้ใน ตำนานไข่มุกมังกร Legend of Dragon Pearl

หยางจื่อ

รับบทเป็น จูอี้หวน องค์หญิงองค์สุดท้ายของราชวงศ์หมิง

สาวงามผู้รักอิสระ ติดนิสัยขี้เล่น ชอบความสนุกเฮฮา เธอเติบโตในหมู่บ้านหุบเขาไข่มุกอันห่างไกล ใช้ชีวิตอย่างสนุกสนาน สนใจแต่เรื่องของกินอร่อยๆ กับการผจญภัยในโลกกว้าง โดยที่ไม่เคยรู้เรื่องชาติกำเนิดที่แท้จริงของตนเอง เมื่อเธอรู้ว่าศิษย์พี่ได้รับภารกิจให้เดินทางไปยังว ังหลวง เธอก็ไม่รอช้าที่จะแอบติดตามไปด้วย จนกลายเป็นจุดเริ่มของเรื่องราวรักแสนเศร้า

ชิน จุนเจีย

รับบทเป็น หลงซาน หรือองค์จักรพรรดิคังซี

องค์จักรพรรดิหนุ่มผู้เปี่ยมล้นไปด้วยปัญญาและความกล ้าหาญ เป็นถึงฮ่องเต้ผู้มีอำนาจสูงสุดในใต้หล้า แต่ปลอมตัวมาสำรวจบ้านเมือง จนโชคชะตาทำให้ได้เจอกับจู้อี้หวน แม้จะไม่ยอมบอกสถานะที่แท้จริงของตนเองในคราวแรก แต่ก็ยอมดื่มน้ำร่วมสาบานเป็นน้องเล็กของอี้หวน ภายหลังแม้จะรู้ว่าอี้หวนคือองค์หญิงแห่งราชวงศ์หมิง แต่ก็ไม่คิดตัดใจจากความรักครั้งนี้

เหมาจื่อจวิ้น

รับบทเป็น จูไคฉวน หรือ ศิษย์พี่จู

ศิษย์พี่ใหญ่ของจู้อี้หวน มีชะตากรรมผูกพันธ์กับจูอี้หวนมาตั้งแต่ตอนเด็กๆ พอโตขึ้นก็ถูกฝากฝังให้ทำภารกิจกอบกู้ราชบังลังค์ และถูกหมั้นหมายให้แต่งงานกับจู้อี้หวนตั้งแต่เด็ก เป้าหมายสูงสุดของเขาคือการทำทุกอย่างเพื่อแผ่นดินรา ชวงศ์หมิง หากทำการใหญ่นี้ได้สำเร็จเขาจะก้าวขึ้นเป็นองค์จักรพ รรดิ์ และยกให้จู้อี้หวนเป็นฮองเฮา

ชูฉาง

รับบทเป็น ศิษย์พี่เสี่ย

สาวงามผู้เพรียบพร้อม เติบโตมากับจู้อี้หวนและคอยดูแลอี้หวนเหมือนเป็นพี่ส าวแท้ๆ ศิษย์พี่เสี่ยเป็นหนึ่งในคนของราชวงศ์หมิง ที่ต้องเสียสละตนเองเพื่อภารกิจกอบกู้บังลังค์ เธอแฝงตัวเข้ามาเป็นหนึ่งในนางสนมของฮ่องเต้คังซี แม้จะในใจของนางจะมีแต่จูไคฉวนก็ตาม

ฮั่นเฉิงหยู

รับบทเป็น ศิษย์พี่เย่

หนึ่งในกลุ่มเด็กแห่งหมู่บ้านหุบเขาไข่มุกที่เติบโตม าพร้อมกับจู้อี้หวน เขาแอบหลงรักจู้อี้หวนมานาน มักทำอะไรหลายๆ อย่างเพื่อปกป้องอี้หวน แต่นั่นก็ทำให้เกิดความบาดหมางใจระหว่างเขากับศิษย์พ ี่จู



Complete name :Legend of the Dragon Pearl 2017 EP1-57 End.WEB-DL.480p.H264.AACLegend of the Dragon Pearl-001.mkv
Format : Matroska
Format version : Version 4
File size : 546 MiB
Duration : 45 min 0 s
Overall bit rate mode : Variable
Overall bit rate : 1 697 kb/s
Encoded date : UTC 2020-02-17 15:02:17
Writing application : mkvmerge v43.0.0 ('The Quartermaster') 64-bit
Writing library : libebml v1.3.10 + libmatroska v1.5.2

Video
ID : 1
Format : AVC
Format/Info : Advanced Video Codec
Format profile : [email protected]
Format settings : CABAC / 4 Ref Frames
Format settings, CABAC : Yes
Format settings, Reference frames : 4 frames
Codec ID : V_MPEG4/ISO/AVC
Duration : 45 min 0 s
Bit rate mode : Variable
Bit rate : 1 441 kb/s
Maximum bit rate : 2 056 kb/s
Width : 852 pixels
Height : 480 pixels
Display aspect ratio : 16:9
Original display aspect ratio : 16:9
Frame rate mode : Constant
Frame rate : 25.000 FPS
Standard : NTSC
Color space : YUV
Chroma subsampling : 4:2:0
Bit depth : 8 bits
Scan type : Progressive
Bits/(Pixel*Frame) : 0.141
Stream size : 464 MiB (85%)
Default : Yes
Forced : No
Color range : Limited

Audio
ID : 2
Format : AAC LC
Format/Info : Advanced Audio Codec Low Complexity
Codec ID : A_AAC-2
Duration : 45 min 0 s
Bit rate : 254 kb/s
Channel(s) : 2 channels
Channel layout : L R
Sampling rate : 44.1 kHz
Frame rate : 43.066 FPS (1024 SPF)
Compression mode : Lossy
Delay relative to video : -80 ms
Stream size : 81.7 MiB (15%)
Default : Yes
Forced : No



29.88 GB
http://www.filecondo.com/dl.php?f=o146e31J542m