+ ตอบกลับกระทู้
สรุปผลการค้นหา 1 ถึง 6 จากทั้งหมด 6
  1. #1
    Administrators รูปส่วนตัว Duckload.us
    สมัครเมื่อ
    Dec 2010
    โพสต์
    112,576
    Thanks
    7
    Thanked 118,431 Times in 53,623 Posts

    Question (ญี่ปุ่น.ไทยมาสเตอร์)-DORAEMON NOBITA’S CHRONICLE OF THE MOON EXPLORATION (2019) โนบิตะสำรวจดินแดนจันทรา-[BluRay.1080p][ Sound:Jpn 5.1/Thai AC3 2.0:Master][ SUB:Eng.PGS]



    เรื่องราวในภาคนี้จะเน้นไปที่นิทานพื้นบ้านญี่ปุ่น เล่าเรื่องเกี่ยวกับกระต่ายที่อาศัยอยู่บนดวงจันทร์ ซึ่งโนบิตะและผองเพื่อนจะออกผจญภัยไปที่นั่น รวมถึงได้พบกับลูกะ เด็กหนุ่มที่อาศัยอยู่ในอีกฟากหนึ่งของดวงจันทร์ พวกโดราเอม่อนต้องช่วยเหลือไม่ให้ดาวบ้านเกิดของลูกะ ถูกทำลายจากฝีมือของตัวร้าย ด้วยความมุ่งมั่นแห่งพลังมิตรภาพของโนบิตะจะทำให้ผ่า นพ้นวิกฤตนี้ไปได้อย่างไร อย่าพลาดเอาใจช่วยผองเพื่อนในวัยเด็กของพวกเรา

    Format : Matroska
    Format version : Version 4
    File size : 3.64 GiB
    Duration : 1 h 50 min
    Overall bit rate : 4 706 kb/s
    Movie name : Doraemon.The.Movie.Nobitas.Chronicle.of.The.Moon.E xploration.2019.1080p.BluRay._©GOLD CUP™

    Video
    ID : 1
    Format : AVC
    Format/Info : Advanced Video Codec
    Format profile : [email protected]
    Format settings : CABAC / 1 Ref Frames
    Format settings, CABAC : Yes
    Format settings, Reference : 1 frame
    Format settings, GOP : M=1, N=25
    Codec ID : V_MPEG4/ISO/AVC
    Duration : 1 h 50 min
    Bit rate mode : Constant
    Bit rate : 3 800 kb/s
    Width : 1 920 pixels
    Height : 1 080 pixels
    Display aspect ratio : 16:9
    Frame rate mode : Constant
    Frame rate : 29.970 (30000/1001) FPS
    Color space : YUV
    Chroma subsampling : 4:2:0
    Bit depth : 8 bits
    Scan type : Progressive
    Bits/(Pixel*Frame) : 0.061
    Stream size : 2.93 GiB (81%)
    Title : Doraemon.The.Movie.Nobitas.Chronicle.of.The.Moon.E xploration.2019.1080p.BluRay._©GOLD CUP™
    Language : Japanese
    Default : Yes
    Forced : No

    Audio #1
    ID : 2
    Format : AC-3
    Format/Info : Audio Coding 3
    Commercial name : Dolby Digital
    Codec ID : A_AC3
    Duration : 1 h 50 min
    Bit rate mode : Constant
    Bit rate : 256 kb/s
    Channel(s) : 2 channels
    Channel layout : L R
    Sampling rate : 44.1 kHz
    Frame rate : 28.711 FPS (1536 SPF)
    Compression mode : Lossy
    Stream size : 203 MiB (5%)
    Title : 2.0 AC3 TH 256k 202m_©GOLD CUP™
    Language : Thai
    Service kind : Complete Main
    Default : Yes
    Forced : No

    Audio #2
    ID : 3
    Format : AC-3
    Format/Info : Audio Coding 3
    Commercial name : Dolby Digital
    Codec ID : A_AC3
    Duration : 1 h 50 min
    Bit rate mode : Constant
    Bit rate : 640 kb/s
    Channel(s) : 6 channels
    Channel layout : L R C LFE Ls Rs
    Sampling rate : 44.1 kHz
    Frame rate : 28.711 FPS (1536 SPF)
    Compression mode : Lossy
    Stream size : 507 MiB (14%)
    Title : 5.1 AC3 Jpn 640k 506m_©GOLD CUP™
    Language : Japanese
    Service kind : Complete Main
    Default : No
    Forced : No

    Text
    ID : 4
    Format : PGS
    Muxing mode : zlib
    Codec ID : S_HDMV/PGS
    Codec ID/Info : Picture based subtitle format used on BDs/HD-DVDs
    Duration : 1 h 49 min
    Bit rate : 18.7 kb/s
    Count of elements : 3308
    Stream size : 14.6 MiB (0%)
    Title : En.PGS.White.75-20-10_©GOLD CUP™
    Language : English
    Default : Yes
    Forced : No





    Download: cornfile
    http://cornfile.com/x38o5l88ir3r
    Download: mekafile
    http://www.mekafile.com/dl.php?f=3q188cc5BYX1

  2. The Following User Says Thank You to Duckload.us For This Useful Post:

    bigbang06 (02-22-2020)

  3. #2
    Senior Member
    สมัครเมื่อ
    Dec 2013
    โพสต์
    2,038
    Thanks
    3,956
    Thanked 0 Times in 0 Posts
    ขอบคุณครับ...

  4. #3
    Junior Member
    สมัครเมื่อ
    Sep 2019
    โพสต์
    5
    Thanks
    0
    Thanked 0 Times in 0 Posts
    ขอบคุณมากครับ
    แก้ไขครั้งล่าสุดโดย Pun442000 : 02-23-2020 เมื่อ 03:55 PM

  5. #4
    Junior Member
    สมัครเมื่อ
    Apr 2016
    โพสต์
    8
    Thanks
    0
    Thanked 0 Times in 0 Posts
    โหลดได้แล้ว ขอบคุณครับ
    แก้ไขครั้งล่าสุดโดย markuz : 02-23-2020 เมื่อ 12:25 PM

  6. #5
    Senior Member
    สมัครเมื่อ
    Jul 2013
    โพสต์
    320
    Thanks
    0
    Thanked 0 Times in 0 Posts
    ขอบคุณครับผม หลานชอบมาก

  7. #6
    Senior Member
    สมัครเมื่อ
    Jul 2012
    โพสต์
    6,602
    Thanks
    0
    Thanked 0 Times in 0 Posts
    ขอบคุณมากจ้า

+ ตอบกลับกระทู้

ข้อมูลกระทู้

Users Browsing this Thread

ในขณะนี้มี 1 ท่านดูกระทู้อยู่. (0 สมาชิกและ 1 ผู้เยี่ยมชม)

     

กฎการโพสต์ข้อความ

  • ท่าน ไม่สามารถ ตั้งกระทู้ใหม่ได้
  • ท่าน ไม่สามารถ ตอบกระทู้ได้
  • ท่าน ไม่สามารถ แนบไฟล์ได้
  • ท่าน ไม่สามารถ แก้ไขข้อความโพสต์ได้
  • BB code สถานะ เปิด
  • Smilies สถานะ เปิด
  • [IMG] สถานะ เปิด
  • HTML สถานะ ปิด