+ ตอบกลับกระทู้
สรุปผลการค้นหา 1 ถึง 4 จากทั้งหมด 4
  1. #1
    Administrators รูปส่วนตัว Duckload.us
    สมัครเมื่อ
    Dec 2010
    โพสต์
    112,806
    Thanks
    7
    Thanked 118,668 Times in 53,694 Posts

    Question (ฝรั่ง.ใหม่.ไทยมาสเตอร์)-USS Indianapolis:Men Of Courage (2016) กองเรือหาญกล้าฝ่าทะเลเดือด[BluRay.1080p][ Sound:Eng 5.1/Thai AC3 2.0:Master][ SUB:Eng/Thai.PGS]



    ในสงครามโลกครั้งที่สอง ทหารเรือจอมทรหดนายหนึ่งต้องติดอยู่กลางทะเลฟิลิปปิน ส์ เขาต้องผจญกับช่วงเวลาสุดเลวร้ายเมื่อเสบียงเริ่มร่อ ยหรอและต้องอยู่ท่ามกลางฝูงฉลามที่หิวโหย
    เรือลำนี้ที่มันดังเพราะหลังจากนี้มันมีดราม่าเรื่อง กัปตันเรือ กัปตันเรือรอดตายมาได้และถูกจับขึ้นศาลทหาร
    เป็นคนเดียวในประวัติศาสตร์สงครามโลกครั้งที่สอง
    ที่กัปตันเรือจม และถูกพิพากษาว่าผิด เพราะไม่ขับเรือซิกแซก
    จนกัปตันต้องยิงตัวตาย ด้วยความเครียด
    ถึงขนาดใช้กัปตันเรือดำน้ำของญี่ปุ่นที่ยิงเรือมาเป็ นพยานในศาล
    สุดท้ายศาลกลับคำพิพากษาให้พ้นผิด ลงนามโดยปธน บิล คลินตัน
    สาเหตุที่เรือจมเพราะว่า ภารกิจส่งอุปกรณ์มันเป็นความลับ
    กัปตันเรือขอเรือพิฆาตมาคุ้มกัน เรือพิฆาตมีอุปกรณ์ตรวจจับเรือดำน้ำที่ดีกว่า
    ทัพเรือก็ไม่ให้เพราะต้องเอาไปคุ้มกันเรือขนส่งที่บร รทุกนักบินทิ้งระเบิดนิวเครีย
    ด้วยความที่เป็นภารกิจลับ เรือลำนี้จึงห้ามสื่อสารโดยวิทยุ และไม่มีใครรู้ว่า
    เรือลำนี้ออกไปแล้ว หรือจะมาถึงเมื่อไร พอเรือโดนตอปิโดจมจึงไม่มีใครออกค้นหา
    แม้จะส่งสัญญานขอความช่วยเหลือ ก็ถูกเพิกเฉยเพราะคิดว่าเป็นสัญญานลวง
    ของญี่ปุ่น จนเครื่องบินลาดตระเวณบินมาเจอโดยบังเอิญพอดี

    Format : Matroska
    Format version : Version 4
    File size : 4.09 GiB
    Duration : 2 h 10 min
    Overall bit rate : 4 493 kb/s
    Movie name : USS.Indianapolis.Men.of.Courage.2016.1080p.BluRay. H264._©GOLD CUP™
    Video
    ID : 1
    Format : AVC
    Format/Info : Advanced Video Codec
    Format profile : [email protected]
    Format settings : CABAC / 1 Ref Frames
    Format settings, CABAC : Yes
    Format settings, Reference : 1 frame
    Format settings, GOP : M=1, N=25
    Codec ID : V_MPEG4/ISO/AVC
    Duration : 2 h 10 min
    Bit rate mode : Constant
    Bit rate : 3 500 kb/s
    Width : 1 920 pixels
    Height : 800 pixels
    Display aspect ratio : 2.40:1
    Frame rate mode : Constant
    Frame rate : 29.970 (30000/1001) FPS
    Color space : YUV
    Chroma subsampling : 4:2:0
    Bit depth : 8 bits
    Scan type : Progressive
    Bits/(Pixel*Frame) : 0.076
    Stream size : 3.18 GiB (78%)
    Title : USS.Indianapolis.Men.of.Courage.2016.1080p.BluRay. H264._©GOLD CUP™
    Language : English
    Default : Yes
    Forced : No

    Audio #1
    ID : 2
    Format : AC-3
    Format/Info : Audio Coding 3
    Commercial name : Dolby Digital
    Codec ID : A_AC3
    Duration : 2 h 10 min
    Bit rate mode : Constant
    Bit rate : 320 kb/s
    Channel(s) : 2 channels
    Channel layout : L R
    Sampling rate : 44.1 kHz
    Frame rate : 28.711 FPS (1536 SPF)
    Compression mode : Lossy
    Stream size : 298 MiB (7%)
    Title : 2.0 AC3 Th 320k 298m_©GOLD CUP™
    Language : Thai
    Service kind : Complete Main
    Default : Yes
    Forced : No

    Audio #2
    ID : 3
    Format : AC-3
    Format/Info : Audio Coding 3
    Commercial name : Dolby Digital
    Codec ID : A_AC3
    Duration : 2 h 10 min
    Bit rate mode : Constant
    Bit rate : 640 kb/s
    Channel(s) : 6 channels
    Channel layout : L R C LFE Ls Rs
    Sampling rate : 44.1 kHz
    Frame rate : 28.711 FPS (1536 SPF)
    Compression mode : Lossy
    Stream size : 596 MiB (14%)
    Title : 5.1 AC3 EN 640k 596m_©GOLD CUP™
    Language : English
    Service kind : Complete Main
    Default : No
    Forced : No

    Text #1
    ID : 4
    Format : PGS
    Muxing mode : zlib
    Codec ID : S_HDMV/PGS
    Codec ID/Info : Picture based subtitle format used on BDs/HD-DVDs
    Duration : 2 h 0 min
    Bit rate : 20.5 kb/s
    Count of elements : 3196
    Stream size : 17.6 MiB (0%)
    Title : TH.PGS.White.67-64-21_©GOLD CUP™
    Language : Thai
    Default : Yes
    Forced : No

    Text #2
    ID : 5
    Format : PGS
    Muxing mode : zlib
    Codec ID : S_HDMV/PGS
    Codec ID/Info : Picture based subtitle format used on BDs/HD-DVDs
    Duration : 2 h 0 min
    Bit rate : 19.5 kb/s
    Count of elements : 2660
    Stream size : 16.7 MiB (0%)
    Title : EN.PGS.Red.75-50-22_©GOLD CUP™
    Language : English
    Default : No
    Forced : No

    Text #3
    ID : 6
    Format : PGS
    Muxing mode : zlib
    Codec ID : S_HDMV/PGS
    Codec ID/Info : Picture based subtitle format used on BDs/HD-DVDs
    Duration : 2 h 0 min
    Bit rate : 23.1 kb/s
    Count of elements : 3126
    Stream size : 19.8 MiB (0%)
    Title : EN.SDH.PGS.Blue.75-50-22_©GOLD CUP™
    Language : English
    Default : No
    Forced : No





    Download: cornfile
    http://cornfile.com/yziu4cgdwh4i
    Download: mekafile
    http://www.mekafile.com/dl.php?f=Ux048ac5GvGp

  2. The Following 3 Users Say Thank You to Duckload.us For This Useful Post:

    bigbang06 (02-24-2020), noi54 (02-26-2020), Tatum03 (02-24-2020)

  3. #2
    Member
    สมัครเมื่อ
    Feb 2013
    โพสต์
    32
    Thanks
    0
    Thanked 0 Times in 0 Posts
    cornfile โหลดไม่ได้ครับ

  4. #3
    Senior Member
    สมัครเมื่อ
    Oct 2013
    ที่อยู่
    Thailand
    โพสต์
    1,292
    Thanks
    1,163
    Thanked 0 Times in 0 Posts
    ขอบคุณมาก

  5. #4
    Senior Member
    สมัครเมื่อ
    Jun 2014
    โพสต์
    3,105
    Thanks
    0
    Thanked 0 Times in 0 Posts
    ขอบคุณครับ

+ ตอบกลับกระทู้

ข้อมูลกระทู้

Users Browsing this Thread

ในขณะนี้มี 1 ท่านดูกระทู้อยู่. (0 สมาชิกและ 1 ผู้เยี่ยมชม)

     

กฎการโพสต์ข้อความ

  • ท่าน ไม่สามารถ ตั้งกระทู้ใหม่ได้
  • ท่าน ไม่สามารถ ตอบกระทู้ได้
  • ท่าน ไม่สามารถ แนบไฟล์ได้
  • ท่าน ไม่สามารถ แก้ไขข้อความโพสต์ได้
  • BB code สถานะ เปิด
  • Smilies สถานะ เปิด
  • [IMG] สถานะ เปิด
  • HTML สถานะ ปิด