+ ตอบกลับกระทู้
สรุปผลการค้นหา 1 ถึง 2 จากทั้งหมด 2
  1. #1
    Administrators รูปส่วนตัว Duckload.us
    สมัครเมื่อ
    Dec 2010
    โพสต์
    131,531
    Thanks
    7
    Thanked 135,188 Times in 59,793 Posts

    Lightbulb [ฝรั่ง]-[Netflix]-[Pretty Little liars Complete Season 1-7 เพื่อนสนิทคิดไม่ซื่อ ปี 1-7 Troian Bellisario, Ashley Benson, Lucy Hale, Shay Mitchell, Sasha Pieterse Ep.1-160/End]-HDTV.H.264.1080p. [From HD-TV]-[Sound:Eng]-[Sub:Thai/Eng]




    Pretty Little liars Season 1-7 เพื่อนสนิทคิดไม่ซื่อ ปี 1-7
    นักแสดง:
    Troian Bellisario as Spencer Hastings เธอเป็นคนฉลาดเธอเพิ่งได้ที่ฝึกงานใหม่ที่สำนักนายกเ ทศมนตรี ดังนั้นเธอจึงย้ายไปอยู่กับพี่สาว และเธอก็สนใจในตัว เว็น นายแพทย์ฝึกหัดคู่หมั้นของพี่สาว ความสัมพันธ์ครั้งนี้ก็ถูกพี่สาวรู้เข้าจนได้ ดังนั้น เว็น จึงย้ายออกไปจากบ้าน ส่วนสเปนเชอร์ก็เริ่มความสัมพันธ์ครั้งใหม่กับชายหนุ ่มที่คลับ อย่างไรก็ตามเธอปกปิดเรื่องที่แม่ของเธอที่เป็นมะเร็ งไม่ให้เพื่อนๆ รู้ แล้วเธอจะแก้ปัญหาอย่างไร
    Ashley Benson as Hanna Marin หลังจากการหายตัวไปของอลิสัน เธอกลายเป็นคนที่ป๊อบปูล่ามากที่สุดในเมืองโรสวูด ซึ่งก่อนหน้านี้เธอเป็นคนอ้วน แต่ภายหลังที่อลิสันหายไปเธอก็ผอมลงต่อมาแฟนหนุ่มของ เธอบอกเลิก ทำให้เธอใจลอย ขับรถไปชนต้นไม้ และเธอยังต้องไปทำงานที่คลีนิคทำฟันเพื่อใช้หนี้ เธอถูกหญิงสาวคนหนึ่งขับรถชน เธอคนนั้นบอกว่าชื่อ A แล้วเธอจะเป็นอย่างไรต่อไป จะเกิดเรื่องร้ายๆ กับแฮนน่าอีกรึเปล่า
    Lucy Hale as Aria Montgomery หลังจากที่เธอย้ายไปอยู่ที่ยุโรป เธอย้ายกลับมาที่เมืองโรสวูดอีกครั้งพร้อมกับแม่ (เอลล่า) พ่อ (ไบรอัน) และ น้องชาย (ไมค์) ในครั้งนี้อาเรียเริ่มต้นความรักครั้งใหม่อีกครั้งกั บอาจารย์ภาษาอังกฤษคน ใหม่ที่ชื่อว่า Ezra Fitz หลังจากนั้นไม่นานเธอได้รับข้อความจาก A ถึงเรื่องความรักที่เป็นความลับของเธอครั้งนี้ เธอจะตัดสินใจอย่างไรกับข้อความนั้นดี เธอจะหาตัว A ให้พบ หรือเธอจะบอกความลับครั้งนี้กับแม่ดีล่ะ
    Shay Mitchell as Emily Fields เธอเป็นนักกีฬาว่ายน้ำของโรงเรียน ดูจะนิ่งๆ เงียบๆ ขี้อาย แต่อ่อนโยนและเอาใจใส่คนอื่น เธอเป็นเพียงคนเดียวที่ยังแคร์อลิสันอยู่ แล้วบ้านเธอกับบ้านอลิสันก็อยู่ติดกันด้วย ภายหลังมีครอบครัวใหม่ย้ายเข้ามาอยู่แทน ซึ่งครอบครัวนี้มีลูกสาวอยู่หนึ่งคนชื่อ มายา เธอกับมายาสนิทกันอย่างรวดเร็ว แต่เมื่อ A ส่งข้อความมาขู่เรื่องความลับที่เอ็มมิลี่นั้นเป็นเล สเบี้ยน แล้วเธอจะปกปิดความลับสำคัญครั้งนี้ได้หรือไม่
    Sasha Pieterse as Alison DiLaurentis สาวแสบประจำกลุ่ม ผู้ชอบแกล้งชาวบ้านอยู่เป็นนิจ และกุมความลับของเพื่อนๆ ไว้ เมื่อเธอหายสาบสูญไปเมื่อ 1 ปีก่อน และมีคนพบศพของเธอในบ้านเก่า ทุกคนก็คิดว่าละครเศร้าฉากนี้จะจบลงแล้ว แต่ก็มีเมสเสสลึกลับผู้ใช้นามแฝงว่า “A” คอยส่งข้อความผ่านทั้ง SMS จดหมาย และอื่นๆ คอยขู่เข็ญอีก 4 สาวที่เหลือตลอดเวลา แถมเธอยังมีความลับเกี่ยวกับ เจจา สาวที่ต้องตาบอดเนื่องจากอุบัติเหตุไฟไหม้อีกด้วย
    Ian Harding as Ezra Fitz
    Laura Leighton as Ashley Marin
    Janel Parrish as Mona Vanderwaal
    Tyler Blackburn as Caleb Rivers
    Keegan Allen as Toby Cavanaugh
    Holly Marie Combs as Ella Montgomery
    Chad Lowe as Byron Montgomery

    General
    Unique ID : 107840903099785914739032259329900144786 (0x5121670706C09D29DE75D6C1C14FE892)
    Complete name : K:Pretty Little liars Season 1-7 เพื่อนสนิทคิดไม่ซื่อ ปี 1-7Pretty.Little.Liars.S01E09.The.Perfect.Storm.1080 p.WEB-DL.DDP5.1.x264.mkv
    Format : Matroska
    Format version : Version 4
    File size : 1.41 GiB
    Duration : 43 min 13 s
    Overall bit rate : 4 663 kb/s
    Encoded date : UTC 2020-02-25 02:30:21
    Writing application : mkvmerge v19.0.0 ('Brave Captain') 64-bit
    Writing library : libebml v1.3.5 + libmatroska v1.4.8

    Video
    ID : 1
    Format : AVC
    Format/Info : Advanced Video Codec
    Format profile : [email protected]
    Format settings : CABAC / 3 Ref Frames
    Format settings, CABAC : Yes
    Format settings, Reference fra : 3 frames
    Codec ID : V_MPEG4/ISO/AVC
    Duration : 43 min 13 s
    Bit rate : 4 001 kb/s
    Width : 1 920 pixels
    Height : 1 080 pixels
    Display aspect ratio : 16:9
    Frame rate mode : Constant
    Frame rate : 23.976 (24000/1001) FPS
    Color space : YUV
    Chroma subsampling : 4:2:0
    Bit depth : 8 bits
    Scan type : Progressive
    Bits/(Pixel*Frame) : 0.080
    Stream size : 1.21 GiB (86%)
    Default : Yes
    Forced : No

    Audio
    ID : 2
    Format : E-AC-3
    Format/Info : Enhanced AC-3
    Commercial name : Dolby Digital Plus
    Codec ID : A_EAC3
    Duration : 43 min 13 s
    Bit rate mode : Constant
    Bit rate : 640 kb/s
    Channel(s) : 6 channels
    Channel layout : L R C LFE Ls Rs
    Sampling rate : 48.0 kHz
    Frame rate : 31.250 FPS (1536 SPF)
    Compression mode : Lossy
    Delay relative to video : -83 ms
    Stream size : 198 MiB (14%)
    Language : English
    Service kind : Complete Main
    Default : Yes
    Forced : No

    Text #1
    ID : 3
    Format : PGS
    Muxing mode : zlib
    Codec ID : S_HDMV/PGS
    Codec ID/Info : Picture based subtitle format used on BDs/HD-DVDs
    Duration : 42 min 34 s
    Bit rate : 32.0 kb/s
    Count of elements : 1192
    Stream size : 9.74 MiB (1%)
    Language : Thai
    Default : Yes
    Forced : No

    Text #2
    ID : 4
    Format : UTF-8
    Codec ID : S_TEXT/UTF8
    Codec ID/Info : UTF-8 Plain Text
    Duration : 42 min 13 s
    Bit rate : 79 b/s
    Count of elements : 618
    Stream size : 24.5 KiB (0%)
    Language : English
    Default : No
    Forced : No

    เรื่องย่อ: สร้างจากนิยายขายดีของ ชาร่า เชิฟพาร์ด (Sara Shepard) เป็นซีรี่ส์วัยรุ่นที่ดำเนินเรื่องได้อย่างน่าสนใจ โดยแสดงให้เห็นที่มาที่ไปแนวคิดของแต่ละตัวละคร และสอดแทรกเรื่องราวที่น่าคิดของครอบครัวลงไปด้วย ชวนให้น่าติดตามยิ่งขึ้น การดำเนินเรื่องหลักเป็นเรื่องราวของเพื่อนสนิท 5 คน ได้แก่ อลิสันหรืออาลี อาเรีย เอ็มมิลี่ สเปนเซอร์ และแฮนน่า เป็นเพื่อนซี้กัน เพราะพวกเธอป๊อปปูลาร์ในโรงเรียน อีกทั้งฉลาดแถมยังสวยเลือกได้ เพื่อนทุกคนจึงยกให้อาลีเป็นผู้นำเทรนด์ และเป็นที่ปรึกษาปัญหาหัวใจ อาลีจึงรู้ความลับดำมืดของทุกคน.... จนกระทั่งคืนหนึ่ง อาลีได้หายตัวไปอย่างไร้ร่องรอย และสาบสูญไปพร้อมกับความลับของเพื่อนๆ และตัวเธอเอง สามปีต่อมา... สี่สาวซึ่งชีวิตพลิกผัน และได้แยกย้ายกันไปแล้ว ต่างต้องตกใจสุดขีด เมื่อตำรวจพบศพอลิสันภายในบ้านหลังเก่าของเธอนั่นเอง และมีข้อความจากใครบางคนที่ลงชื่อว่า เอ ข้อความซึ่งบ่งบอกว่า เอ รู้นะว่าเบื้องหลังรอยยิ้มแสนหวานของพวกเธอมีความลับ ดำมืดซุกซ่อนอยู่ แล้วพวกเธอทั้ง 4 ที่เหลือปิดบังความลับอะไรไว้ อลิสันตายจริงหรือไม่ ใครคือคนที่ส่งข้อความปริศนาเหล่านั้นมา ติดตามค้นหาคำตอบกันได้ในซีรีย์ Pretty Little Liars เพื่อนสนิทคิดไม่ซื่อ
    Credit: franky



    1
    http://www.filecondo.com/dl.php?f=gaf99b1JauiZ
    2
    http://www.filecondo.com/dl.php?f=Cac5cf1Jav4s
    3
    http://www.filecondo.com/dl.php?f=79fac41JawyE
    4
    http://www.filecondo.com/dl.php?f=Jed14a1Jax7k
    5
    http://www.filecondo.com/dl.php?f=j061e31JaxTO
    6
    http://www.filecondo.com/dl.php?f=k0f0b81JaA9M
    7
    http://www.filecondo.com/dl.php?f=la24c71JaATL

  2. #2
    Senior Member
    สมัครเมื่อ
    Jul 2012
    โพสต์
    7,685
    Thanks
    0
    Thanked 0 Times in 0 Posts
    ขอบคุณมากจ้า

+ ตอบกลับกระทู้

ข้อมูลกระทู้

Users Browsing this Thread

ในขณะนี้มี 1 ท่านดูกระทู้อยู่. (0 สมาชิกและ 1 ผู้เยี่ยมชม)

     

กฎการโพสต์ข้อความ

  • ท่าน ไม่สามารถ ตั้งกระทู้ใหม่ได้
  • ท่าน ไม่สามารถ ตอบกระทู้ได้
  • ท่าน ไม่สามารถ แนบไฟล์ได้
  • ท่าน ไม่สามารถ แก้ไขข้อความโพสต์ได้
  • BB code สถานะ เปิด
  • Smilies สถานะ เปิด
  • [IMG] สถานะ เปิด
  • HTML สถานะ ปิด