+ ตอบกลับกระทู้
สรุปผลการค้นหา 1 ถึง 2 จากทั้งหมด 2
  1. #1
    Administrators รูปส่วนตัว Duckload.us
    สมัครเมื่อ
    Dec 2010
    โพสต์
    114,610
    Thanks
    7
    Thanked 120,932 Times in 54,362 Posts

    Question [ฝรั่ง]-[HDR] Transformers Collection : ทรานฟอร์เมอร์ส • [พากย์ไทย 5.1 + เสียงอังกฤษ TrueHD Atmos] • [บรรยายไทย + อังกฤษ]

    1080p HDR
    1. เป็นหนังที่ดูกับทีวี HDR
    2. ใช้ madVR ถ้าดูกับเครื่องคอมด้วยโปรแกรม MPC
    3. หรือโปรแกรมดูหนังที่ถอดรหัส HDR ได้

    ถ้าไม่มีโปรแกรมถอดรหัส HDR หนังจะสีจืดๆ นะครับ






    Quote:

    Transformer (2007) : มหาวิบัติจักรกลสังหารถล่มจักรวาล

    เมื่อโลกเปลี่ยนเป็นสมรภูมิรบของพวกมัน เหลาจักรกลสังหารที่มาจากจักรวาลอันไกลโพ้น ฝ่ายออโต้บอท ผู้พิทักษ์รักสันติ ซึ่งมี ออพติมัส ไพร์ม เป็นผู้นำ และฝ่าย ดีเซปทิคอนส์ ผู้ทำลายล้าง ซึ่งมี เมกะทรอน เป็นผู้นำและหวังจะยึดครองแหล่งพลังงานบนโลก สงครามของทั้งสองฝ่ายได้เกิดขึ้นจึงเกิดขึ้นบนโลกของ เรา ซึ่งกุญแจสำคัญของสุดยอดพลังอำนาจที่ฝ่ายทำลายล้างต้ องการครอบครองนั้นอยู่ที่เด็กหนุ่มที่ชื่อ แซม วิทวิคกี้ (แสดงโดยดาราวัยรุ่นที่มาแรงที่สุด ไชอา ลาบัฟฟ์) ที่ยังไม่รู้ว่าเขาคือความหวังสุดท้ายของโลก แซมและแฟนสาวสวย มิคาเอลล่า (มีแกน ฟ็อกซ์ ) ต้องตกอยู่ในวงล้อมของอภิมหาสงครามจักรกลนี้ เมื่อถูกต้อนในอยู่ในสถานการณ์ที่อันตรายถึงชีวิต จากเด็กหนุ่มที่ยังไม่ประสีประสาในเรื่องราวใดๆ ก็กลับทำให้แซมเข้าใจถึง คติประจำครอบครัวของตนเองที่ว่า ถ้าไม่มีการเสียสละ ก็ไม่มีวันได้มาซึ่งชัยชนะ



    -------------------------------------------------------------------------------------------------------------

    Transformers (2009) Revenge Of The Fallen : ทรานฟอร์เมอร์ส อภิมหาสงครามแค้น

    สองปีผ่านไป นับแต่หนุ่มน้อย แซม วิทวิคกี้ (ไชอา ลาบัฟ) ได้ช่วยจักรวาลให้รอดพ้นจากศึกขั้นเด็กขาดระหว่างหุ่ นยนต์จากต่างดาวที่กำลังสู้รบกันอยู่ แม้จะสร้างวีรกรรมอันกล้าหาญสุดขั้วมาแล้ว แต่แซมยังคงเป็นวัยรุ่นธรรมด๊าธรรมดาที่มีปัญหาว้าวุ ่นใจไม่เว้นแต่ละวัน ไม่ว่าจะเป็นเรื่องการต้องไปเรียนต่อมหาวิทยาลัย การต้องทิ้ง มิเกล่า (เมแกน ฟ็อกซ์) แฟนสาวของเขาเอาไว้ที่บ้านเกิด และต้องแยกห่างจากพ่อแม่ของเขา (เควิน ดันน์ และ จูลี่ ไวท์) เป็นครั้งแรก แน่นอน ยังมีเรื่องหนักใจอื่นๆ อีกเมื่อแซมต้องพยายามอธิบายให้เพื่อนใหม่ของเขาฟังว ่าทำไมเขาถึงต้องจากมา เพื่อนคนใหม่ที่ว่าก็คือหุ่นยนต์ที่คอยคุ้มครองดูแลเ ขาอย่างบัมเบิลบี สำหรับแซมแล้ว เป้าหมายของเขาก็คือการใช้ชีวิตในรั้วมหาวิทยาลัยอย่ างเด็กนักศึกษาธรรมดาๆ แต่การจะทำตัวให้ธรรมดาได้ เขาต้องทำเป็นไม่สนโชคชะตาของตัวเขาเองเสียก่อน สงครามบนโลกมนุษย์ได้ยุติลง แต่ทว่าสงครามในห้วงจักรวาลนั้นเพิ่งจะเริ่มต้น หลังจากการกลับมาถึงไซเบอร์ทรอน สตาร์สครีมได้รับคำสั่งของเจ้าแห่งฝ่ายดีเซปติคอนส์ และได้ตัดสินใจกลับมาบุกรุกโลกพร้อมกองกำลังจักรกลสั งหาร ฝ่ายออโต้บอทส์ ที่เชื่อมั่นในสันติภาพได้พบว่า ซากหุ่นที่ถูกทำลาย ของเมกาทรอนได้ถูกขโมยไปจากกองทัพสหรัฐฯ โดยสคอร์ ฟิน็อกซ์ และทำให้คืนชีพขึ้นมาอีกครั้ง ตอนนี้เมกาทรอนจึงกลับมาเพื่อแก้แค้น พร้อมสตาร์สครีมผู้ภักดี และกองทัพจักรกลสังหารฝ่ายดีเซฟติคอนส์ที่เดินทางมาส มทบอีกจำนวนมาก มหาสงครามแค้นครั้งนี้จึงเป็นงานใหญ่สำหรับฝ่ายออโต้ บอทส์ ที่จะต้องรับศึกอันยิ่งใหญ่เกินกว่าที่ใครจะคาดคิดได ้



    -------------------------------------------------------------------------------------------------------------

    Transformers (2011) Dark Of The Moon : ทรานฟอร์เมอร์ส ดาร์ค ออฟ เดอะ มูน

    Transformer 3 นำเสนอเรื่องราวของ แซม วิทวิคกี้ (ลาบัฟ) ที่กำลังจะย่างเท้าก้าวแรกเข้าสู่ความเป็นผู้ใหญ่ พร้อมๆกับการรักษาสถานะการเป็นมิตรชาวมนุษย์กับออพติ มัส ไพรม์เอาไว้ ภาพยนตร์เรื่องนี้มีฉากหลังเป็นการแข่งขันทางอวกาศระ หว่างสหภาพโซเวียตและสหรัฐอเมริกา ซึ่งบ่งบอกว่าเหล่าทรานส์ฟอร์เมอร์มีบทบาทที่ซ่อนเร้ นอยู่ และนั่นก็คือหนึ่งในความลับที่อันตรายที่สุดของโลก และหนึ่งในหุ่นตัวร้ายของภาคนี้คือ ช็อคเวฟ เหตุการณ์ที่ถูกปกปิดเป็นความลับของโลกเมื่อในอดีตนำ ไปสู่อภิมหาสงครามที่เหล่า ทรานส์ฟอร์มเมอร์ส ก็ไม่อาจคุ้มครองโลกได้โดยลำพัง แซม วิทวิคกี้ (ไชอา ลาบัฟ) และฝ่าย ออโต้บ็อทส์ จึงต้องต่อสู้กับความชั่วร้ายที่คุกคามโลกของเราจากน ้ำมือของพวก ดีเซปติคอนส์ ในผลงานความมันส์เรื่องยิ่งใหญ่ของโลก จากการผนึกกำลังของผู้กำกับ ไมเคิล เบย์ และผู้อำนวยการสร้าง สตีเว่น สปีลเบิร์ก



    -------------------------------------------------------------------------------------------------------------

    Transformers (2014) Age of Extinction : ทรานส์ฟอร์เมอร์ส 4 มหาวิบัติยุคสูญพันธุ์

    มหาวิบัติยุคสูญพันธุ์ ผลงานจากผู้กำกับระดับบล็อกบัสเตอร์ ไมเคิล เบย์ ที่มาพร้อมกับทีมนักแสดง อาทิ มาร์ค วอห์ลเบิร์ก, แจ็ค เรย์เนอร์, นิโคลา เพลท์ซ และ สแตนลีย์ ทุชชี่ โดยภาคนี้จะได้ จอห์น กู้ดแมน และเคน วาตานาเบ้ มาให้เสียงกับหุ่นออโตบ็อตตัวใหม่ กู้ดแมนจะสวมวิญญาณ ให้เสียงหุ่น ออโตบ็อต ฮาวน์ ส่วนวาตานาเบ้ให้เสียงเป็น ดริฟท์ ขณะที่ ปีเตอร์ คัลเลน กลับมาให้เสียงเป็น ออพติมัส ไพรม์ เช่นเคย และแฟรง เวลเกอร์ มาให้เสียงตัวละครใหม่อย่าง กัลวาทรอน ภายหลังจากมหากาพย์การต่อสู้และการทำลายล้างครั้งยิ่ งใหญ่ ขณะที่โลกกำลังฟื้นตัว มีมนุษย์กลุ่มหนึ่งพยายามสร้างประวัติศาสตร์ใหม่ โดยมีโลกเป็นเป้าหมายของมหาวิบัติครั้งนี้ ในทรานส์ฟอร์เมอร์สภาคใหม่ ออพติมัส ไพรม์ และเหล่าออโตบ็อตส์ พร้อมด้วยทีมนักแสดงใหม่ จะพบกับการท้าทายครั้งยิ่งใหญ่และต้องเผชิญกับพบอภิม หาสงครามครั้งใหม่ เอาใจช่วยเหล่าออโตบ็อตส์และทีมนักแสดงในการต่อสู้คร ั้งนี้ เริ่มต้นหลังจากสงครามครั้งใหญ่ที่ทำให้เมืองพังพินา ศ แต่โลกก็อยู่รอดปลอดภัย ในขณะที่มนุษยชาติเริ่มฟื้นตัว ก็มีวายร้ายกลุ่มหนึ่งเผยตัวออกมาพยายามจะควบคุมกระแ สประวัติศาสตร์...ขณะที่ศัตรูทรงพลังจากโบราณกาลก็ทำ ให้โลกต้องเผชิญหน้ากับหายนะอีกครั้ง ด้วยความช่วยเหลือจากมนุษย์กลุ่มใหม่ (นำโดยมาร์ค วอห์ลเบิร์ก) ออพติมัส ไพรม์และเหล่าออโต้บอท ก็ต้องเผชิญหน้ากับความท้าทายที่น่าสะพรึงกลัวที่สุด ในการผจญภัยที่เหลือเชื่อครั้งนี้ พวกเขาจะต้องต่อสู้ในสงครามระหว่างธรรมะและอธรรม ที่ท้ายที่สุดแล้ว ก็กลายเป็นมหึมาสงครามของโลก



    -------------------------------------------------------------------------------------------------------------

    Transformers (2017) The Last Knight : ทรานส์ฟอร์เมอร์ส 5 อัศวินรุ่นสุดท้าย

    ผลงานหนังทรานส์ฟอร์เมอร์เรื่องอลังการที่สุดจากผู้ก ำกับไมเคิล เบย์ และผู้อำนวยการบริหาร สตีเวน สปีลเบิร์ก อัศวินรุ่นสุดท้าย แตกเรื่องจากแก่นเรื่องหลักของแฟรนไชส์ทรานฟอร์เมอร์ ส และให้คำจำกัดความวีรบุรุษใหม่ มนุษย์และทรานส์ฟอร์เมอร์ส์อยู่ในสงครามออพติมัสจากไ ป การปกป้องอนาคตของพวกเราขึ้นอยู่กับความลับในอดีต ที่ซ่อนอยู่ในประวัติศาสตร์ทรานส์ฟอร์เมอร์สบนโลกใบน ี้ การพิทักษ์โลกของเราตกอยู่ในกำมือของพันธมิตรอย่าง เคด เยเกอร์ (มาร์ค วอห์ลเบิร์ก) บัมเบิ้ลบี และขุนนางอังกฤษ (เซอร์ แอนโธนี ฮ็อปกินส์) และ ศาสตราจารย์จากอ็อกซ์ฟอร์ด (ลอร่า แฮดด็อก)



    -------------------------------------------------------------------------------------------------------------

    Bumblebee (2018) IMAX Edition : บัมเบิ้ลบี

    หลังจากเนื้อหาของภาพยนตร์ชุด Transformers สามารถทำรายได้เป็นกอบเป็นกำไรช่วง 10 ปีที่ผ่านมา ถึงจะสวนกระแสกับคำวิจารณ์ก็ตาม แต่คนก็ยินดีที่จะตีตั๋วเข้าไปจนมีโครงการสร้างต่อยา วๆไปอีก 30 ปี ข้างหน้า แม้ว่าภาคที่ 6 จะยังไม่มีกำหนดอะไรออกมาในเวลานี้ แต่ภาคเสริมเนื้อหาของตัวละครยอดนิยมอย่าง “บัมเบิ้ลบี” ก็ได้มีการร่างบท เตรียมถ่ายทำ และ กำหนดวันฉายแล้ว กับภาพยนตร์ที่ชื่อตามตัวละครพระเอกเลยอย่าง “Bumblebee”

    สงครามกลางเมือง ณ ดาวไซเบอร์ตรอน เหล่าทรานสฟอร์เมอร์ได้สู้รบกัน โดยแบ่งออกเป็นสองฝ่าย ได้แก่ “ออโต้บอท” ชนเผ่าจักรกลที่รักความยุติธรรม รู้จักคุณค่าของชีวิต และการอยู่ร่วมกันกับทุกชีวิตในจักรวาล กับอีกฝ่ายคือ “ดีเซปติค่อน” หุ่นยนต์ฝ่ายที่เชื่อว่าเผ่าพันธุ์ของตน แข็งแกร่งที่สุดในจักรวาล ทั้งสองฝ่ายห้ำหั่นกันจนดาวไซเบอร์ตรอนกำลังจะแตกเป็ นเสี่ยงๆ ออพติมัส ไพร์ม ผู้นำฝ่ายออโต้บอท ได้สั่งให้พรรคพวก ทิ้งดาวบ้านเกิด กบดาบตามที่ต่างๆในจักรวาล และมอบหมายให้ “บี-127? ทหารคนสนิท ได้อพยพมายังโลก เพื่อเตรียมการสร้างกองกำลังออโต้บอทที่นั่น…

    ในปี 1987 “บี 127? นักรบชาวไซเบอร์ตรอนที่อยู่ในสภาพบาดเจ็บสาหัสจากการ สู้รบ สูญเสียกล่องเสียงและความทรงจำ ก็ได้หนีมาซ่อนตัวในสุสานรถแห่งหนึ่ง ซึ่งเป็นเวลาเดียวกับ “ชาร์ลี” (แสดงโดย เฮลีย์ สไตน์เฟลด์) กำลังจะอายุ 18 ก็ได้พบกับซากของรถเต่าสีเหลือง และในตอนนั้นเธอก็ได้เผลอทำให้“สปาร์ค”แหล่งพลังงานข องทรานสฟอร์เมอร์ในตัวของ บี-127 ตื่นขึ้น ชาร์ลีดูแลนักรบไซเบอร์ตรอนที่ลงมายังโลก พร้อมตั้งชื่อว่า “บัมเบิ้ลบี” แต่ทางฝ่ายดีเซปติคอนเองก็ได้ส่งมือสังหารสองตัว “ดรอปคิก” และ “แชทเตอร์” ออกไล่ล่าบัมเบิ้ลบี และชาร์ลี งานนี้ร้อนถึงหน่วยงาน Sector 7 ต้องเข้ามามีส่วนร่วมในเรื่องราวครั้งนี้…








    Quote:


    Video
    ID : 1
    Format : HEVC
    Format/Info : High Efficiency Video Coding
    Commercial name : HDR10
    Format profile : Main [email protected]@Main
    Codec ID : V_MPEGH/ISO/HEVC
    Duration : 1 h 53 min
    Bit rate : 5 005 kb/s
    Width : 1 920 pixels
    Height : 1 080 pixels
    Display aspect ratio : 16:9
    Frame rate mode : Constant
    Frame rate : 23.976 (24000/1001) FPS
    Color space : YUV
    Chroma subsampling : 4:2:0 (Type 2)
    Bit depth : 10 bits
    Bits/(Pixel*Frame) : 0.101
    Stream size : 3.98 GiB (48%)
    Writing library : x265 3.0_Au+4-dcbec33bfb0f:[Windows][GCC 8.2.1][64 bit] 10bit
    Encoding settings : cpuid=1111039 / frame-threads=2 / numa-pools=6 / wpp / no-pmode / no-pme / no-psnr / no-ssim / log-level=2 / input-csp=1 / input-res=1920x1080 / interlace=0 / total-frames=163840 / level-idc=51 / high-tier=1 / uhd-bd=0 / ref=3 / no-allow-non-conformance / repeat-headers / annexb / no-aud / no-hrd / info / hash=0 / no-temporal-layers / open-gop / min-keyint=23 / keyint=250 / gop-lookahead=0 / bframes=4 / b-adapt=2 / b-pyramid / bframe-bias=0 / rc-lookahead=20 / lookahead-slices=6 / scenecut=40 / radl=0 / no-splice / no-intra-refresh / ctu=64 / min-cu-size=8 / no-rect / no-amp / max-tu-size=32 / tu-inter-depth=1 / tu-intra-depth=1 / limit-tu=0 / rdoq-level=0 / dynamic-rd=0.00 / no-ssim-rd / signh-i-d-e / no-tskip / nr-intra=0 / nr-inter=0 / no-constrained-intra / strong-intra-smoothing / max-merge=2 / limit-refs=3 / no-limit-modes / me=1 / subme=2 / merange=57 / temporal-mvp / weightp / no-weightb / no-analyze-src-pics / deblock=0:0 / sao / no-sao-non-deblock / rd=3 / no-early-skip / rskip / no-fast-intra / no-tskip-fast / no-cu-lossless / no-b-intra / no-splitrd-skip / rdpenalty=0 / psy-rd=2.00 / psy-rdoq=0.00 / no-rd-refine / no-lossless / cbqpoffs=0 / crqpoffs=0 / rc=abr / bitrate=5000 / qcomp=0.60 / qpstep=4 / stats-write=0 / stats-read=2 / cplxblur=20.0 / qblur=0.5 / ipratio=1.40 / pbratio=1.30 / aq-mode=2 / aq-strength=1.00 / cutree / zone-count=0 / no-strict-cbr / qg-size=32 / no-rc-grain / qpmax=69 / qpmin=0 / no-const-vbv / sar=1 / overscan=0 / videoformat=5 / range=0 / colorprim=9 / transfer=16 / colormatrix=9 / chromaloc=1 / chromaloc-top=2 / chromaloc-bottom=2 / display-window=0 / master-display=G(13250,34500)B(7500,3000)R(34000,16000)WP (15635,16450)L(10000000,1) / max-cll=0,0 / min-luma=0 / max-luma=1023 / log2-max-poc-lsb=8 / vui-timing-info / vui-hrd-info / slices=1 / no-opt-qp-pps / no-opt-ref-list-length-pps / no-multi-pass-opt-rps / scenecut-bias=0.05 / no-opt-cu-delta-qp / no-aq-motion / hdr / hdr-opt / no-dhdr10-opt / no-idr-recovery-sei / analysis-reuse-level=5 / scale-factor=0 / refine-intra=0 / refine-inter=0 / refine-mv=0 / refine-ctu-distortion=0 / no-limit-sao / ctu-info=0 / no-lowpass-dct / refine-analysis-type=0 / copy-pic=1 / max-ausize-factor=1.0 / no-dynamic-refine / no-single-sei / no-hevc-aq / qp-adaptation-range=1.00
    Default : Yes
    Forced : No
    Color range : Limited
    Color primaries : BT.2020
    Transfer characteristics : PQ
    Matrix coefficients : BT.2020 non-constant
    Mastering display color pri : Display P3
    Mastering display luminance : min: 0.0001 cd/m2, max: 1000 cd/m2

    Audio #1
    ID : 2
    Format : MLP FBA 16-ch
    Format/Info : Meridian Lossless Packing FBA with 16-channel presentation
    Commercial name : Dolby TrueHD with Dolby Atmos
    Codec ID : A_TRUEHD
    Duration : 1 h 53 min
    Bit rate mode : Variable
    Bit rate : 4 736 kb/s
    Maximum bit rate : 7 761 kb/s
    Channel(s) : 8 channels
    Channel layout : L R C LFE Ls Rs Lb Rb
    Sampling rate : 48.0 kHz
    Frame rate : 1 200.000 FPS (40 SPF)
    Compression mode : Lossless
    Stream size : 3.77 GiB (45%)
    Language : English
    Default : Yes
    Forced : No
    Number of dynamic objects : 11
    Bed channel count : 1 channel
    Bed channel configuration : LFE

    Audio #2
    ID : 3
    Format : AC-3
    Format/Info : Audio Coding 3
    Commercial name : Dolby Digital
    Codec ID : A_AC3
    Duration : 1 h 53 min
    Bit rate mode : Constant
    Bit rate : 640 kb/s
    Channel(s) : 6 channels
    Channel layout : L R C LFE Ls Rs
    Sampling rate : 48.0 kHz
    Frame rate : 31.250 FPS (1536 SPF)
    Bit depth : 16 bits
    Compression mode : Lossy
    Delay relative to video : 24 ms
    Stream size : 521 MiB (6%)
    Title : Tha - AC-3 5.1
    Language : Thai
    Service kind : Complete Main
    Default : No
    Forced : No

    Text #1
    ID : 4
    Format : VobSub
    Muxing mode : zlib
    Codec ID : S_VOBSUB
    Codec ID/Info : Picture based subtitle format used on DVDs
    Duration : 1 h 53 min
    Bit rate : 4 319 b/s
    Count of elements : 1144
    Stream size : 3.49 MiB (0%)
    Title : Tha - 1080p
    Language : Thai
    Default : Yes
    Forced : No

    Text #2
    ID : 5
    Format : PGS
    Muxing mode : zlib
    Codec ID : S_HDMV/PGS
    Codec ID/Info : Picture based subtitle format used on BDs/HD-DVDs
    Duration : 1 h 53 min
    Bit rate : 16.8 kb/s
    Count of elements : 2290
    Stream size : 13.6 MiB (0%)
    Title : Thai-PGS
    Language : Thai
    Default : No
    Forced : No

    Text #3
    ID : 6
    Format : PGS
    Muxing mode : zlib
    Codec ID : S_HDMV/PGS
    Codec ID/Info : Picture based subtitle format used on BDs/HD-DVDs
    Duration : 1 h 48 min
    Bit rate : 26.6 kb/s
    Count of elements : 2444
    Stream size : 20.6 MiB (0%)
    Title : English-PGS
    Language : English
    Default : No
    Forced : No



    Download: cornfile
    Bumblebee.(2018).HD.HDR.TrueHD.Atmos.mkv - 8.3 GB
    Transformers.(2007).HD.HDR.TrueHD.Atmos.mkv - 9.8 GB
    Transformers.Age.of.Extinction.(2014).HD.HDR.TrueH D.Atmos.mkv - 12.4 GB
    Transformers.Dark.Of.The.Moon.(2011).HD.HDR.TrueHD .Atmos.mkv - 10.9 GB
    Transformers.Revenge.Of.The.Fallen.(2009).HD.HDR.T rueHD.Atmos.mkv - 10.4 GB
    Transformers.The.Last.Knight.(2017).HD.HDR.TrueHD. Atmos.mkv - 10.6 GB

    Download: mekafile
    Bumblebee.(2018).HD.HDR.TrueHD.Atmos.mkv - 8.3 GB
    Transformers.(2007).HD.HDR.TrueHD.Atmos.mkv - 9.8 GB
    Transformers.Age.of.Extinction.(2014).HD.HDR.TrueH D.Atmos.mkv - 12.4 GB
    Transformers.Dark.Of.The.Moon.(2011).HD.HDR.TrueHD .Atmos.mkv - 10.9 GB
    Transformers.Revenge.Of.The.Fallen.(2009).HD.HDR.T rueHD.Atmos.mkv - 10.4 GB
    Transformers.The.Last.Knight.(2017).HD.HDR.TrueHD. Atmos.mkv - 10.6 GB

  2. #2
    Junior Member
    สมัครเมื่อ
    Feb 2017
    โพสต์
    22
    Thanks
    0
    Thanked 0 Times in 0 Posts
    ขอบคุณครับ

+ ตอบกลับกระทู้

ข้อมูลกระทู้

Users Browsing this Thread

ในขณะนี้มี 1 ท่านดูกระทู้อยู่. (0 สมาชิกและ 1 ผู้เยี่ยมชม)

     

กฎการโพสต์ข้อความ

  • ท่าน ไม่สามารถ ตั้งกระทู้ใหม่ได้
  • ท่าน ไม่สามารถ ตอบกระทู้ได้
  • ท่าน ไม่สามารถ แนบไฟล์ได้
  • ท่าน ไม่สามารถ แก้ไขข้อความโพสต์ได้
  • BB code สถานะ เปิด
  • Smilies สถานะ เปิด
  • [IMG] สถานะ เปิด
  • HTML สถานะ ปิด