+ ตอบกลับกระทู้
สรุปผลการค้นหา 1 ถึง 7 จากทั้งหมด 7
  1. #1
    Administrators รูปส่วนตัว Duckload.us
    สมัครเมื่อ
    Dec 2010
    โพสต์
    114,610
    Thanks
    7
    Thanked 120,940 Times in 54,364 Posts

    Question [ฝรั่ง]-[ใหม่!MASTER] Bad Boys For Life (2020) | แบดบอยส์ คู่หูตลอดกาล ขวางทางนรก -WEB-DL.H.264.1080p. [Master]-[พากย์ไทย]



    การกลับมาอีกครั้งของคู่หู Will Smith และ Martin Lawrence
    ซึ่งครั้งนี้ก็เป็นภาคที่สามแล้ว หลังจากเรื่องราวใน Bad Boys (1995) และ Bad Boys II (2003) คราวนี้สองคู่หูจะกลับมาปฏิบัติภารกิจร่วมกันอีกครั้ ง แม้ว่าคู่หูคู่นี้จะอายุมากขึ้น แต่ก็ยังการันตีความซิ่ง ความเก๋า ความกวนของสองคนนี้ได้เป็นอย่างดี

    Format : Matroska
    Format version : Version 4
    File size : 6.69 GiB
    Duration : 1 h 58 min
    Overall bit rate : 8 056 kb/s

    Video
    ID : 1
    Format : AVC
    Format/Info : Advanced Video Codec
    Format profile : [email protected]
    Format settings : CABAC / 1 Ref Frames
    Format settings, CABAC : Yes
    Format settings, Reference : 1 frame
    Format settings, GOP : M=1, N=25
    Codec ID : V_MPEG4/ISO/AVC
    Duration : 1 h 58 min
    Bit rate mode : Variable
    Bit rate : 7 930 kb/s
    Maximum bit rate : 4 825 kb/s
    Width : 1 920 pixels
    Height : 804 pixels
    Display aspect ratio : 2.40:1
    Frame rate mode : Constant
    Frame rate : 25.000 FPS
    Color space : YUV
    Chroma subsampling : 4:2:0
    Bit depth : 8 bits
    Scan type : Progressive
    Bits/(Pixel*Frame) : 0.205
    Stream size : 6.58 GiB (98%)
    Default : Yes
    Forced : No
    Color range : Limited
    Color primaries : BT.709
    Transfer characteristics : BT.709
    Matrix coefficients : BT.709

    Audio
    ID : 2
    Format : AAC LC
    Format/Info : Advanced Audio Codec Low Complexity
    Codec ID : A_AAC-2
    Duration : 1 h 58 min
    Bit rate : 125 kb/s
    Channel(s) : 2 channels
    Channel layout : L R
    Sampling rate : 48.0 kHz
    Frame rate : 46.875 FPS (1024 SPF)
    Compression mode : Lossy
    Stream size : 107 MiB (2%)
    Language : Thai
    Default : Yes
    Forced : No





    2.4 GB
    http://cornfile.com/1tb0swrreja6
    http://www.mekafile.com/dl.php?f=YLb953c6DA02
    3.3 GB
    http://cornfile.com/m4l47gk9cpfd
    http://www.mekafile.com/dl.php?f=bw88f7c6DAZs
    6.7 GB
    http://cornfile.com/ahxrprsbvke7
    http://www.mekafile.com/dl.php?f=inabdbc6BR30

  2. The Following 14 Users Say Thank You to Duckload.us For This Useful Post:

    bigbang06 (03-18-2020), chock (03-19-2020), jangska (03-18-2020), Jodz14 (03-20-2020), kappa (03-20-2020), ksurachai (03-18-2020), Liquidman (03-18-2020), noi54 (03-23-2020), sawara (03-21-2020), smakha (03-18-2020), spiderpud2 (03-22-2020), Tatum03 (03-18-2020), Tellmon (03-20-2020), Wesker_TOT (03-18-2020)

  3. #2
    Senior Member
    สมัครเมื่อ
    Dec 2013
    โพสต์
    2,093
    Thanks
    4,013
    Thanked 0 Times in 0 Posts
    ขอบคุณครับ...

  4. #3
    Senior Member
    สมัครเมื่อ
    Jun 2014
    โพสต์
    3,881
    Thanks
    0
    Thanked 0 Times in 0 Posts
    ขอบคุณครับ

  5. #4
    Senior Member
    สมัครเมื่อ
    Oct 2013
    ที่อยู่
    Thailand
    โพสต์
    1,335
    Thanks
    1,206
    Thanked 0 Times in 0 Posts
    ขอบคุณมาก

  6. #5
    Senior Member รูปส่วนตัว ksurachai
    สมัครเมื่อ
    Nov 2019
    โพสต์
    150
    Thanks
    54
    Thanked 0 Times in 0 Posts
    ขอบคุณครับ

  7. #6
    Senior Member
    สมัครเมื่อ
    Feb 2020
    โพสต์
    190
    Thanks
    0
    Thanked 0 Times in 0 Posts
    ............ขอบคุณนะ...ขอบคุณนะ
    ........ขอบคุณนะ.........ขอบคุณนะ
    .....ขอบคุณนะ...............ขอบคุณนะ
    ...ขอบคุณนะ....................ขอบคุณนะ........... ...ขอบคุณนะ......
    ..ขอบคุณนะ......................ขอบคุณนะ........ขอ บคุณนะ.....ขอบคุณนะ
    .ขอบคุณนะ........................ขอบคุณนะ.....ขอบค ุณนะ........ขอบคุณนะ
    ขอบคุณนะ.........................ขอบคุณนะ...ขอบคุณ นะ............ขอบคุณนะ
    .ขอบคุณนะ.........................ขอบคุณนะ........ ........................ขอบคุณนะ
    ..ขอบคุณนะ.........................ขอบคุณนะ....... ........................ขอบคุณนะ
    ...ขอบคุณนะ....................................... ...............................ขอบคุณนะ
    ...ขอบคุณนะ....................................... .............................ขอบคุณนะ
    ........ขอบคุณนะ.................................. ...........................ขอบคุณนะ
    ............ขอบคุณนะ.............................. ....................ขอบคุณนะ
    ................ขอบคุณนะ.......................... ...............ขอบคุณนะ
    ..................ขอบคุณนะ........................ .........ขอบคุณนะ
    ......................ขอบคุณนะ..................ขอ บคุณนะ
    ..........................ขอบคุณนะ....ขอบคุณนะ
    $$$$$$$$___$$____$$_______$_______$$$_______$$____ $$___$$_
    ___$$_______$$____$$______$$$______$$_$$_____$$___ _$$__$$__
    ___$$_______$$____$$_____$$_$$_____$$__$$____$$___ _$$_$$___
    ___$$_______$$$$$$$$____$$___$$____$$___$$___$$___ _$$$_____
    ___$$_______$$____$$___$$$$$$$$$___$$____$$__$$___ _$$_$$___
    ___$$_______$$____$$__$$_______$$__$$_____$$_$$___ _$$__$$__
    ___$$_______$$____$$_$$_________$$_$$______$$$$___ _$$___$$_

  8. #7
    Senior Member
    สมัครเมื่อ
    Dec 2013
    โพสต์
    295
    Thanks
    214
    Thanked 0 Times in 0 Posts
    ขอบคุณครับ

+ ตอบกลับกระทู้

ข้อมูลกระทู้

Users Browsing this Thread

ในขณะนี้มี 1 ท่านดูกระทู้อยู่. (0 สมาชิกและ 1 ผู้เยี่ยมชม)

     

กฎการโพสต์ข้อความ

  • ท่าน ไม่สามารถ ตั้งกระทู้ใหม่ได้
  • ท่าน ไม่สามารถ ตอบกระทู้ได้
  • ท่าน ไม่สามารถ แนบไฟล์ได้
  • ท่าน ไม่สามารถ แก้ไขข้อความโพสต์ได้
  • BB code สถานะ เปิด
  • Smilies สถานะ เปิด
  • [IMG] สถานะ เปิด
  • HTML สถานะ ปิด