+ ตอบกลับกระทู้
สรุปผลการค้นหา 1 ถึง 2 จากทั้งหมด 2
  1. #1
    Administrators รูปส่วนตัว Duckload.us
    สมัครเมื่อ
    Dec 2010
    โพสต์
    115,841
    Thanks
    7
    Thanked 122,274 Times in 54,854 Posts

    Question [ฝรั่ง]-((> x265<)) The Lighthouse (2019) : เดอะ ไลท์เฮาส์ [พากย์ไทย 5.1 + เสียงอังกฤษ DTS-HD MA 5.1]-[บรรยายไทย + อังกฤษ]-[เสียงไทย + ซับไทย From MASTER + ซับ PGS คมชัด]



    The Lighthouse_(2019)
    The Lighthouse เดอะ ไลท์เฮาส์ ผลงานโดยโรเบิร์ต เอ็กเกอร์ ผู้กำกับภาพยนตร์เขย่าขวัญยุคใหม่จาก The Witch
    ภาพยนตร์เรื่องนี้เล่าเรื่องการถูกครอบงำจิตใจและอาก ารประสาทหลอนของผู้ดูแลประภาคารที่ตั้งอยู่บนเกาะนิว อิงแลนด์อันลึกลับในยุคทศวรรษ 1890
    ภาพยนตร์นำแสดงโดยโรเบิร์ต แพททินสัน และวิลเลม เดโฟ เข้าฉาย 16 มกราคม ที่โรงภาพยนตร์ เฮาส์ สามย่าน!!!

    Code:
    Format                                   : Matroska
    Format version                           : Version 4
    File size                                : 9.11 GiB
    Duration                                 : 1 h 49 min
    Overall bit rate mode                    : Variable
    Overall bit rate                         : 11.9 Mb/s
    Movie name                               : The.Lighthouse.2019.DTS-HD MA [email protected]
    
    Video
    ID                                       : 1
    Format                                   : HEVC
    Format/Info                              : High Efficiency Video Coding
    Format profile                           : Main [email protected]@High
    Codec ID                                 : V_MPEGH/ISO/HEVC
    Duration                                 : 1 h 49 min
    Bit rate                                 : 7 687 kb/s
    Width                                    : 1 296 pixels
    Height                                   : 1 080 pixels
    Display aspect ratio                     : 1.200
    Frame rate mode                          : Constant
    Frame rate                               : 23.976 (24000/1001) FPS
    Color space                              : YUV
    Chroma subsampling                       : 4:2:0
    Bit depth                                : 10 bits
    Bits/(Pixel*Frame)                       : 0.229
    Stream size                              : 5.86 GiB (64%)
    Title                                    : The.Lighthouse.2019.DTS-HD MA [email protected]
    Writing library                          : x265 - H.265/HEVC codec
    Language                                 : English
    Default                                  : Yes
    Forced                                   : No
    
    Audio #1
    ID                                       : 2
    Format                                   : AC-3
    Format/Info                              : Audio Coding 3
    Commercial name                          : Dolby Digital
    Codec ID                                 : A_AC3
    Duration                                 : 1 h 49 min
    Bit rate mode                            : Constant
    Bit rate                                 : 448 kb/s
    Channel(s)                               : 6 channels
    Channel layout                           : L R C LFE Ls Rs
    Sampling rate                            : 48.0 kHz
    Frame rate                               : 31.250 FPS (1536 SPF)
    Compression mode                         : Lossy
    Stream size                              : 350 MiB (4%)
    Title                                    : Thai DVD Master
    Language                                 : Thai
    Service kind                             : Complete Main
    Default                                  : Yes
    Forced                                   : Yes
    
    Audio #2
    ID                                       : 3
    Format                                   : DTS XLL
    Format/Info                              : Digital Theater Systems
    Commercial name                          : DTS-HD Master Audio
    Codec ID                                 : A_DTS
    Duration                                 : 1 h 49 min
    Bit rate mode                            : Variable
    Bit rate                                 : 3 762 kb/s
    Channel(s)                               : 6 channels
    Channel layout                           : C L R Ls Rs LFE
    Sampling rate                            : 48.0 kHz
    Frame rate                               : 93.750 FPS (512 SPF)
    Bit depth                                : 24 bits
    Compression mode                         : Lossless
    Stream size                              : 2.87 GiB (31%)
    Title                                    : English DTS-HD MA 5.1
    Language                                 : English
    Default                                  : No
    Forced                                   : No
    
    Text #1
    ID                                       : 4
    Format                                   : VobSub
    Muxing mode                              : zlib
    Codec ID                                 : S_VOBSUB
    Codec ID/Info                            : Picture based subtitle format used on DVDs
    Duration                                 : 1 h 49 min
    Bit rate                                 : 1 995 b/s
    Count of elements                        : 836
    Stream size                              : 1.56 MiB (0%)
    Title                                    : Thai 720p
    Language                                 : Thai
    Default                                  : No
    Forced                                   : No
    
    Text #2
    ID                                       : 5
    Format                                   : VobSub
    Muxing mode                              : zlib
    Codec ID                                 : S_VOBSUB
    Codec ID/Info                            : Picture based subtitle format used on DVDs
    Duration                                 : 1 h 49 min
    Bit rate                                 : 3 225 b/s
    Count of elements                        : 836
    Stream size                              : 2.52 MiB (0%)
    Title                                    : Thai 1080p
    Language                                 : Thai
    Default                                  : No
    Forced                                   : No
    
    Text #3
    ID                                       : 6
    Format                                   : VobSub
    Muxing mode                              : zlib
    Codec ID                                 : S_VOBSUB
    Codec ID/Info                            : Picture based subtitle format used on DVDs
    Duration                                 : 1 h 49 min
    Bit rate                                 : 3 217 b/s
    Count of elements                        : 836
    Stream size                              : 2.51 MiB (0%)
    Title                                    : Thai 1080p Yellow
    Language                                 : Thai
    Default                                  : Yes
    Forced                                   : Yes
    
    Text #4
    ID                                       : 7
    Format                                   : VobSub
    Muxing mode                              : zlib
    Codec ID                                 : S_VOBSUB
    Codec ID/Info                            : Picture based subtitle format used on DVDs
    Duration                                 : 1 h 49 min
    Bit rate                                 : 4 221 b/s
    Count of elements                        : 836
    Stream size                              : 3.29 MiB (0%)
    Title                                    : Thai 1080p BIG
    Language                                 : Thai
    Default                                  : No
    Forced                                   : No
    
    Text #5
    ID                                       : 8
    Format                                   : PGS
    Muxing mode                              : zlib
    Codec ID                                 : S_HDMV/PGS
    Codec ID/Info                            : Picture based subtitle format used on BDs/HD-DVDs
    Duration                                 : 1 h 49 min
    Bit rate                                 : 10.6 kb/s
    Count of elements                        : 1688
    Stream size                              : 8.24 MiB (0%)
    Title                                    : Thai PGS
    Language                                 : Thai
    Default                                  : No
    Forced                                   : No
    
    Text #6
    ID                                       : 9
    Format                                   : PGS
    Muxing mode                              : zlib
    Codec ID                                 : S_HDMV/PGS
    Codec ID/Info                            : Picture based subtitle format used on BDs/HD-DVDs
    Duration                                 : 1 h 49 min
    Bit rate                                 : 10.9 kb/s
    Count of elements                        : 1688
    Stream size                              : 8.47 MiB (0%)
    Title                                    : Thai PGS Yellow
    Language                                 : Thai
    Default                                  : No
    Forced                                   : No
    
    Text #7
    ID                                       : 10
    Format                                   : PGS
    Muxing mode                              : zlib
    Codec ID                                 : S_HDMV/PGS
    Codec ID/Info                            : Picture based subtitle format used on BDs/HD-DVDs
    Duration                                 : 1 h 45 min
    Bit rate                                 : 12.4 kb/s
    Count of elements                        : 2052
    Stream size                              : 9.38 MiB (0%)
    Title                                    : English
    Language                                 : English
    Default                                  : No
    Forced                                   : No
    
    Menu
    00:00:00.000                             : en:Chapter 1
    00:06:49.535                             : en:Chapter 2
    00:11:47.958                             : en:Chapter 3
    00:13:44.950                             : en:Chapter 4
    00:19:52.901                             : en:Chapter 5
    00:25:33.951                             : en:Chapter 6
    00:29:55.003                             : en:Chapter 7
    00:36:23.183                             : en:Chapter 8
    00:41:28.655                             : en:Chapter 9
    00:51:00.310                             : en:Chapter 10
    00:55:48.307                             : en:Chapter 11
    01:03:43.699                             : en:Chapter 12
    01:09:40.722                             : en:Chapter 13
    01:19:01.825                             : en:Chapter 14
    01:24:46.712                             : en:Chapter 15
    01:39:42.607                             : en:Chapter 16












    Download: cornfile
    http://cornfile.com/ijfhfiva8ym4
    Download: mekafile
    http://www.mekafile.com/dl.php?f=KM754dc6PzAu

  2. #2
    Senior Member
    สมัครเมื่อ
    Jun 2014
    โพสต์
    4,088
    Thanks
    0
    Thanked 0 Times in 0 Posts
    ขอบคุณครับ

+ ตอบกลับกระทู้

ข้อมูลกระทู้

Users Browsing this Thread

ในขณะนี้มี 1 ท่านดูกระทู้อยู่. (0 สมาชิกและ 1 ผู้เยี่ยมชม)

     

กฎการโพสต์ข้อความ

  • ท่าน ไม่สามารถ ตั้งกระทู้ใหม่ได้
  • ท่าน ไม่สามารถ ตอบกระทู้ได้
  • ท่าน ไม่สามารถ แนบไฟล์ได้
  • ท่าน ไม่สามารถ แก้ไขข้อความโพสต์ได้
  • BB code สถานะ เปิด
  • Smilies สถานะ เปิด
  • [IMG] สถานะ เปิด
  • HTML สถานะ ปิด