+ ตอบกลับกระทู้
สรุปผลการค้นหา 1 ถึง 4 จากทั้งหมด 4
  1. #1
    Administrators รูปส่วนตัว Duckload.us
    สมัครเมื่อ
    Dec 2010
    โพสต์
    114,610
    Thanks
    7
    Thanked 120,941 Times in 54,365 Posts

    Angry [ฝรั่ง]-((ใหม่-พากย์ไทยก่อนมาสเตอร์)) >> แผนปล้นที่คาดไม่ได้และไม่อยากให้คุณเดา << American Animals (2018) รวมกันปล้น อย่าให้ใครจับได้ พากย์ไทย-อังกฤษ DD 5.1 + ซับอังกฤษ-ไทย PGS คมชัดสุดๆ-Blu-ray.AC-3.1080p. [Modified]-[พากย์ไทย บรรยายไทย



    อีกหนึ่งหนังฟอร์มเล็กที่มีดีในตัวเกินคาด บาร์ต เลย์ตัน ผู้กำกับหน้าใหม่ที่เหมาหน้าที่เขียนบทเองด้วย มาพร้อมกับไอเดียบรรเจิดมากมาย แล้วเหมือนร้อนวิชาระดมใส่ทุกอย่างลงไปในเรื่องนี้ แต่ดีที่มันไม่ล้นแต่ลงตัวได้รสชาติกลมกล่อม แม้ว่าเป็นเรื่องที่เท่าไหร่แล้วไม่รู้ที่เล่าเหตุกา รณ์ปล้นที่ดัดแปลงมาจากเหตุการณ์จริง แต่บาร์ตก็หาทางฉีกจากขนบเดิม ๆ ได้ด้วยการเอาแก๊งปล้นจริงทั้ง 4 คน มานั่งเล่าเรื่องราวในอดีตสลับกับเรื่องราวของหนังที ่เดินหน้าไปเรื่อย ๆ แต่เก๋ตรงที่ว่ามันผ่านการตัดต่อ ที่ลงตัว ไม่ได้ออกมาแนวสารคดี ไม่ได้เป็นบทสัมภาษณ์แต่เป็นการเล่าเรื่องราวด้วยท่า ทางกวน ๆ ตัดต่อสลับไปมากับเหตุการณ์ในหนังที่บางครั้งก็เบรคอ ารมณ์ บางครั้งก็ช่วยส่งอารมณ์ทำให้ได้มุกฮาเสียงดัง ๆ อยู่หลายครั้ง

    ผู้กำกับ : บาร์ต เลย์ตัน
    นักแสดง : อีแวน ปีเตอร์ส
    Blake Jenner
    แบร์รี โคเฮน
    ค่ายภาพยนตร์ : American Animals/M Pictures
    ประเภท : อาชญากรรม / ชีวิต / ระทึกขวัญ
    ความยาว : 116 นาที
    วันที่เข้าฉาย : 05 กรกฎาคม 2018
    พากย์ : อังกฤษ, ไทย
    ซับไตเติล : อังกฤษ, ไทย

    เรื่องย่อ :

    วัยรุ่นทุกคนต่างล้วนมีความฝันเป็นของตัวเอง และอยากโตเป็นผู้ใหญ่โดยไม่ต้องเผชิญกับความยากลำบาก แต่การส่งตัวเองไปถึงฝั่งฝันอาจต้องอาศัยทางลัดนิดหน ่อย และทางลัดของ วาเรน (อีแวน ปีเตอร์ส) ก็คือการโจรกรรมหนังสือหายากมูลค่า 12 ล้านเหรียญ ที่หลับใหลอยู่ในห้องสมุดของมหาวิทยาลัย แต่เขาต้องอาศัยแผนการและฟอร์มทีมโจรกรรมฝีมือฉกาจ เขาจึงศึกษาแผนการโจรกรรมจากหนังดังหลายเรื่อง และรวบรวมทีมยอดฝีมือที่ประกอบไปด้วยศิลปินผู้มีความ ทะเยอทะยาน สเปนเซอร์ (แบร์รี่ คีโอแกน) นักบัญชีดาวรุ่ง เอริก (จาเรด อับราฮัมสัน) และชายผู้คลั่งไคล้การฟิตกล้าม ชาส (เบลค เจนเนอร์) เมื่อเหล่าตัวแสบมารวมตัวกัน การโจรกรรมสุดเพี้ยนที่อุกอาจที่สุดในหน้าประวัติศาส ตร์อเมริกาจึงเริ่มขึ้น



    General
    Unique ID : 9816587430753487293979849621720727279
    Complete name : American Animals (2018) รวมกันปล้น อย่าให้ใครจับได้ [Mini].mkv
    Format : Matroska
    Format version : Version 4 / Version 2
    File size : 2.92 GiB
    Duration : 1 h 56 min
    Overall bit rate : 3 573 kb/s
    Movie name : American.Animals.2018.1080p.BluRay.AVC.8bit.DD5.1. H264-P4TiP4T
    Encoded date : UTC 2020-03-23 11:36:15
    Writing application : mkvmerge v41.0.0 ('Smarra') 64-bit
    Writing library : libebml v1.3.9 + libmatroska v1.5.2
    Cover : Yes
    Attachments : cover

    Video
    ID : 1
    Format : AVC
    Format/Info : Advanced Video Codec
    Format profile : [email protected]
    Format settings, CABAC : Yes
    Format settings, RefFrames : 4 frames
    Codec ID : V_MPEG4/ISO/AVC
    Duration : 1 h 56 min
    Bit rate : 2 500 kb/s
    Width : 1 920 pixels
    Height : 816 pixels
    Display aspect ratio : 2.35:1
    Frame rate mode : Constant
    Frame rate : 23.976 (23976/1000) FPS
    Color space : YUV
    Chroma subsampling : 4:2:0
    Bit depth : 8 bits
    Scan type : Progressive
    Bits/(Pixel*Frame) : 0.067
    Stream size : 2.04 GiB (70%)
    Writing library : x264 core 152 r2851M ba24899
    Encoding settings : cabac=1 / ref=4 / deblock=1:-1:-19900
    Default : Yes
    Forced : No

    Audio #1
    ID : 2
    Format : AAC
    Format/Info : Advanced Audio Codec
    Format profile : LC
    Codec ID : A_AAC
    Duration : 1 h 56 min
    Bit rate : 224 kb/s
    Channel(s) : 6 channels
    Channel positions : Front: L C R, Side: L R, LFE
    Sampling rate : 48.0 kHz
    Frame rate : 46.875 FPS (1024 SPF)
    Compression mode : Lossy
    Delay relative to video : -43 ms
    Stream size : 187 MiB (6%)
    Language : English
    Default : No
    Forced : No

    Audio #2
    ID : 3
    Format : AC-3
    Format/Info : Audio Coding 3
    Format settings, Endianness : Big
    Codec ID : A_AC3
    Duration : 1 h 56 min
    Bit rate mode : Constant
    Bit rate : 448 kb/s
    Channel(s) : 6 channels
    Channel positions : Front: L C R, Side: L R, LFE
    Sampling rate : 48.0 kHz
    Frame rate : 31.250 FPS (1536 SPF)
    Bit depth : 16 bits
    Compression mode : Lossy
    Delay relative to video : -43 ms
    Stream size : 375 MiB (13%)
    Language : Thai
    Service kind : Complete Main
    Default : Yes
    Forced : Yes

    Audio #3
    ID : 4
    Format : AC-3
    Format/Info : Audio Coding 3
    Format settings, Endianness : Big
    Codec ID : A_AC3
    Duration : 1 h 56 min
    Bit rate mode : Constant
    Bit rate : 384 kb/s
    Channel(s) : 2 channels
    Channel positions : Front: L R
    Sampling rate : 48.0 kHz
    Frame rate : 31.250 FPS (1536 SPF)
    Bit depth : 16 bits
    Compression mode : Lossy
    Delay relative to video : -43 ms
    Stream size : 321 MiB (11%)
    Language : Thai
    Service kind : Complete Main
    Default : No
    Forced : No

    Text #1
    ID : 5
    Format : UTF-8
    Codec ID : S_TEXT/UTF8
    Codec ID/Info : UTF-8 Plain Text
    Duration : 1 h 51 min
    Bit rate : 63 b/s
    Count of elements : 1503
    Stream size : 52.3 KiB (0%)
    Language : English
    Default : No
    Forced : No

    Text #2
    ID : 6
    Format : UTF-8
    Codec ID : S_TEXT/UTF8
    Codec ID/Info : UTF-8 Plain Text
    Duration : 1 h 51 min
    Bit rate : 141 b/s
    Count of elements : 1402
    Stream size : 115 KiB (0%)
    Language : Thai
    Default : No
    Forced : No

    Text #3
    ID : 7
    Format : PGS
    Muxing mode : zlib
    Codec ID : S_HDMV/PGS
    Codec ID/Info : Picture based subtitle format used on BDs/HD-DVDs
    Duration : 1 h 51 min
    Bit rate : 41.7 kb/s
    Count of elements : 2804
    Stream size : 33.2 MiB (1%)
    Language : Thai
    Default : Yes
    Forced : Yes



    Download: cornfile
    http://cornfile.com/r4anb5mpumll
    Download: mekafile
    meka อัพไม่ได้ครับ หนังค่าย M

  2. The Following 2 Users Say Thank You to Duckload.us For This Useful Post:

    gaszolineskywalker (03-27-2020), Jodz14 (03-25-2020)

  3. #2
    Senior Member
    สมัครเมื่อ
    Oct 2012
    โพสต์
    1,024
    Thanks
    1,966
    Thanked 0 Times in 0 Posts
    ขอบคุณครับ

  4. #3
    Senior Member
    สมัครเมื่อ
    Jun 2014
    โพสต์
    3,881
    Thanks
    0
    Thanked 0 Times in 0 Posts
    ขอบคุณครับ

  5. #4
    Senior Member
    สมัครเมื่อ
    Jul 2013
    โพสต์
    584
    Thanks
    0
    Thanked 0 Times in 0 Posts
    ขอบคุณครับผม

+ ตอบกลับกระทู้

ข้อมูลกระทู้

Users Browsing this Thread

ในขณะนี้มี 1 ท่านดูกระทู้อยู่. (0 สมาชิกและ 1 ผู้เยี่ยมชม)

     

กฎการโพสต์ข้อความ

  • ท่าน ไม่สามารถ ตั้งกระทู้ใหม่ได้
  • ท่าน ไม่สามารถ ตอบกระทู้ได้
  • ท่าน ไม่สามารถ แนบไฟล์ได้
  • ท่าน ไม่สามารถ แก้ไขข้อความโพสต์ได้
  • BB code สถานะ เปิด
  • Smilies สถานะ เปิด
  • [IMG] สถานะ เปิด
  • HTML สถานะ ปิด