ดูจากปกอย่าเข้าใจผิดคิดว่านี่คือหนังแอคชั่นไซไฟอวก าศนะครับ เพราะนี่คือสุดยอดหนังไซไฟสยองขวัญระดับตำนาน ที่กวาดเสียงชมรวมไปถึงคำวิจารณ์มาแล้วทั่วโลก (ซึ่งเป็นหลังจากที่หนังออกฉายและขาดทุนอย่างไม่น่าใ ห้อภัย ด้วยสาเหตุที่คนเข้าใจกันไปเองว่าหนังมันเป็นแอคชั่น ไซไฟ - -'') Event Horizon เรื่องราวของยานอวกาศ Event Horizon ที่ถูกสร้างขึ้นเพื่อทำการทดลองเกี่ยวกับการวาร์ปข้า มกาลเวลา (TimeSpace) ซึ่งเป็นการเปิดอุโมงค์มิติเพื่อเดินทางย่นเวลา จากที่หมายหนึ่งไปอีกที่หมายหนึ่งด้วยความรวดเร็ว แต่ทว่าเกิดเหตุขัดข้องบางอย่างในระหว่างการทดลอง ทำให้ยาน Event Horizon และลูกเรือทั้งหมดสูญหายไประหว่างเดินทาง... 7 ปีต่อมามันถูกพบในพื้นที่บริเวณใกล้ๆดาวพฤหัส ทางการจึงสั่งให้ยานกู้ภัย Lewis and Clark ที่นำโดยกัปตันมิลเลอร์พร้อมลูกเรือ เข้ากู้ยาน Event Horizon เป็นการโดยด่วน ซึ่งในครั้งนี้จะมีด็อกเตอร์วิลเลี่ยม เวียร์ติดตามตามไปด้วย ซึ่งเขาเป็นผู้สร้างยาน Event Horizon และรวมไปถึงออกแบบอุโมงค์วาร์ปข้ามกาลเวลา ในที่สุดทุกๆคนก็เดินทางมาถึงที่หมายและเริ่มปฏิบัติ ภารกิจสำรวจและกู้ภัยโดยทันที ที่ข้างในยาน Event Horizon พวกเขาไม่พบสิ่งมีชีวิตเหลือรอดแม้แต่คนเดียว ลูกเรือทั้งลำหายสาปสูญไปไหนกันหมด อีกทั้งยังพบบางสิ่งบางอย่างที่ชวนสะพรึงในยานลำนี้ม ากมาย แท้จริงแล้วตลอดเวลา 7 ปีที่มันหายไป ยาน Event Horizon หายไปอยู่ที่ไหนมากันแน่ และกว่าจะได้คำตอบนั้น กัปตันมิลเลอร์และลูกเรือของเขา รวมไปถึงด็อกเตอร์เวียร์ ต้องเผชิญหน้ากับความตายและความน่ากลัวที่หาคำตอบไม่ ได้ของยานลำนี้ อย่างที่ไม่มีใครหนีพ้น...



ความยาว : 96 นาที
ประเภท : Horror, Mystery, Sci-Fi, Thriller
เข้าฉาย : 15 สิงหาคม 2540
ค่ายผู้ผลิต : Paramount Pictures
สถานที่ถ่ายทำ : ประเทศสหรัฐอเมริกา
ภาษา : อังกฤษ, ไทย
ซับไตเติล : อังกฤษ, ไทย

เรื่องย่อ :

ในปี ค.ศ. 2047 โลกได้รับสัญญาณจากยาน Event Horizon ซึ่งหายสาบสูญไปในปี 2040 ยานกลับมาปรากฏตัวอีกครั้งรอบวงโคจรดาวเนปจูน และอีกไม่นานจะร่วงลงสู่ดาว ยาน Lewis and Clark ถูกส่งไปสำรวจโดยมี ดร.วิลเลี่ยม เวียร์ ผู้ออกแบบยานติดสอยห้อยตามไปด้วย เมื่อมาถึง ดร.วิลเลี่ยม ก็เฉลยความจริงกับลูกเรือว่ายาน Event Horizon จริง ๆ แล้วเป็นยานทดสอบระบบขับเคลื่อนยานแบบลับสุดยอด ระบบนี้จะสร้างหลุมดำที่เชื่อมต่อจุดสองจุดในอวกาศเพ ื่อย่นระยะเวลาการเดินทาง ระบบไม่ได้ทำงานตามที่คาด ยานหายสาบสูญ ส่วนสัญญาณที่พวกเขาได้รับหลังจากยานปรากฏตัวก็มีค่อ ยชัด แต่คาดว่าเป็นภาษาลาตินว่า ช่วยปลดปล่อยฉัน



General
Unique ID : 284698957874513184527061701855237158929
Complete name : Event Horizon (1997) ฝ่านรก สุดขอบฟ้า.mkv
Format : Matroska
Format version : Version 4 / Version 2
File size : 9.24 GiB
Duration : 1 h 35 min
Overall bit rate : 13.8 Mb/s
Movie name : Event.Horizon.1997.REMASTERED.1080p.BluRay.AVC.8bi t.DTS.x264-P4TiP4T
Encoded date : UTC 2020-03-22 17:07:46
Writing application : mkvmerge v41.0.0 ('Smarra') 64-bit
Writing library : libebml v1.3.9 + libmatroska v1.5.2
Cover : Yes
Attachments : cover

Video
ID : 1
Format : AVC
Format/Info : Advanced Video Codec
Format profile : [email protected]
Format settings, CABAC : Yes
Format settings, RefFrames : 4 frames
Codec ID : V_MPEG4/ISO/AVC
Duration : 1 h 35 min
Bit rate : 11.5 Mb/s
Width : 1 916 pixels
Height : 752 pixels
Display aspect ratio : 2.548
Frame rate mode : Constant
Frame rate : 23.976 (24000/1001) FPS
Color space : YUV
Chroma subsampling : 4:2:0
Bit depth : 8 bits
Scan type : Progressive
Bits/(Pixel*Frame) : 0.333
Stream size : 7.70 GiB (83%)
Writing library : x264 core 148 r2795M aaa9aa8
Encoding settings : cabac=1 / ref=4 / deblock=1:-2:-2100
Default : Yes
Forced : No

Audio #1
ID : 2
Format : DTS
Format/Info : Digital Theater Systems
Mode : 16
Format settings, Endianness : Big
Codec ID : A_DTS
Duration : 1 h 35 min
Bit rate mode : Constant
Bit rate : 1 509 kb/s
Channel(s) : 6 channels
Channel positions : Front: L C R, Side: L R, LFE
Sampling rate : 48.0 kHz
Frame rate : 93.750 FPS (512 SPF)
Bit depth : 16 bits
Compression mode : Lossy
Stream size : 1.01 GiB (11%)
Language : English
Default : No
Forced : No

Audio #2
ID : 3
Format : AC-3
Format/Info : Audio Coding 3
Format settings, Endianness : Big
Codec ID : A_AC3
Duration : 1 h 35 min
Bit rate mode : Constant
Bit rate : 384 kb/s
Channel(s) : 6 channels
Channel positions : Front: L C R, Side: L R, LFE
Sampling rate : 48.0 kHz
Frame rate : 31.250 FPS (1536 SPF)
Bit depth : 16 bits
Compression mode : Lossy
Stream size : 264 MiB (3%)
Title : Thai Modified 5.1
Language : Thai
Service kind : Complete Main
Default : Yes
Forced : Yes

Audio #3
ID : 4
Format : AC-3
Format/Info : Audio Coding 3
Format settings, Endianness : Big
Codec ID : A_AC3
Duration : 1 h 35 min
Bit rate mode : Constant
Bit rate : 384 kb/s
Channel(s) : 2 channels
Channel positions : Front: L R
Sampling rate : 48.0 kHz
Frame rate : 31.250 FPS (1536 SPF)
Bit depth : 16 bits
Compression mode : Lossy
Stream size : 264 MiB (3%)
Title : Thai Stereo
Language : Thai
Service kind : Complete Main
Default : No
Forced : No

Text #1
ID : 5
Format : UTF-8
Codec ID : S_TEXT/UTF8
Codec ID/Info : UTF-8 Plain Text
Duration : 1 h 26 min
Bit rate : 55 b/s
Count of elements : 1022
Stream size : 35.5 KiB (0%)
Language : English
Default : No
Forced : No

Text #2
ID : 6
Format : UTF-8
Codec ID : S_TEXT/UTF8
Codec ID/Info : UTF-8 Plain Text
Duration : 1 h 29 min
Bit rate : 92 b/s
Count of elements : 652
Stream size : 60.4 KiB (0%)
Language : Thai
Default : No
Forced : No

Text #3
ID : 7
Format : PGS
Muxing mode : zlib
Codec ID : S_HDMV/PGS
Codec ID/Info : Picture based subtitle format used on BDs/HD-DVDs
Duration : 1 h 29 min
Bit rate : 26.7 kb/s
Count of elements : 1304
Stream size : 17.1 MiB (0%)
Language : Thai
Default : Yes
Forced : Yes

Menu
00:00:00.000 : enaylight Station
00:05:41.007 : en:The Lewis and Clark
00:08:26.965 : en:I'm Waiting
00:12:11.981 : en:A Single Transmission
00:18:38.951 : en:The Event Horizon
00:23:19.732 : en:A Tomb
00:29:05.786 : en:The Heart of the Ship
00:34:01.081 : en:The Gateway
00:39:23.319 : en:The Dark
00:45:08.623 : en:Hallucinations
00:51:09.608 : en:Open the Door
00:58:17.703 : en:Mistake in the Translation
01:04:37.957 : en:Wonderful Things to Show You
01:09:29.957 : enr. Weir
01:15:05.167 : en:Isn't She Beautiful?
01:22:20.561 : en:Let Me Show You
01:29:34.953 : en:Rescue




Download: cornfile
http://cornfile.com/u6jiey4m7ts5
Download: mekafile
http://www.mekafile.com/dl.php?f=FVf0ccc6UXgL