+ ตอบกลับกระทู้
สรุปผลการค้นหา 1 ถึง 2 จากทั้งหมด 2
  1. #1
    Administrators รูปส่วนตัว Duckload.us
    สมัครเมื่อ
    Dec 2010
    โพสต์
    112,526
    Thanks
    7
    Thanked 118,306 Times in 53,583 Posts

    Angry [ฝรั่ง]-++ฉบับ Extended++(.10bit.HEVC.HDR)**Rambo Last Blood (2019) แรมโบ้ 5 นักรบคนสุดท้าย**[เสียงอังกฤษDTS-HDMaster+เสียงไทยมาสเตอร์ดีวีดี : บรรยายไทยPGSคมชัด+อังกฤษ]-Encode.DTS-HD.2160p. [Modified]-[พากย์ไทย บรรยายไทย]




    SS



    Quote:
    Rambo: Last Blood บอกเล่าเรื่องราวของ จอห์น แรมโบ้ สุดยอดนักรบเดนตาย อดีตทหารผ่านศึกสงครามเวียดนาม ที่คราวนี้เขาได้กลับไปยังบ้านเกิดแสนสงบ แต่ความสงบก็ถูกทำลายเมื่อเขาต้องเผชิญหน้ากับอดีตอั นโหดร้ายโดยมีแก๊งค้ายาชาวเม็กซิกันเป็นผู้จุดชนวน เมื่อลูกสาวของเพื่อนสนิทของจอห์น แรมโบ้ ถูกแก๊งค้ายาลักพาตัวไป เขาจึงต้องช่วยเหลือเธอ จนเกิดสงครามครั้งใหญ่ แล้วแรมโบ้ก็จะใช้ทักษะของนักรบเดนตายในการปิดฉากสงค รามด้วยความเดือดยิ่งกว่าครั้งไหน ๆ ที่โลกเคยเผชิญ

    Code:
    Format                                   : Matroska
    Format version                           : Version 4
    File size                                : 55.8 GiB
    Duration                                 : 1 h 41 min
    Overall bit rate mode                    : Variable
    Overall bit rate                         : 79.1 Mb/s
    Movie name                               : {MINI Super-HQ}[email protected]
    Encoded date                             : UTC 2020-03-23 12:23:26
    Writing application                      : mkvmerge v44.0.0 ('Domino') 64-bit
    Writing library                          : libebml v1.3.10 + libmatroska v1.5.2
    
    Video
    ID                                       : 1
    Format                                   : HEVC
    Format/Info                              : High Efficiency Video Coding
    Format profile                           : Main [email protected]@High
    HDR format                               : SMPTE ST 2086, HDR10 compatible
    Codec ID                                 : V_MPEGH/ISO/HEVC
    Duration                                 : 1 h 41 min
    Bit rate                                 : 74.5 Mb/s
    Width                                    : 3 840 pixels
    Height                                   : 2 160 pixels
    Display aspect ratio                     : 16:9
    Frame rate mode                          : Constant
    Frame rate                               : 23.976 (24000/1001) FPS
    Color space                              : YUV
    Chroma subsampling                       : 4:2:0 (Type 2)
    Bit depth                                : 10 bits
    Bits/(Pixel*Frame)                       : 0.375
    Stream size                              : 52.6 GiB (94%)
    Writing library                          : x265 2.7+1-2aa737a99f51:[Windows][MSVC 1700][64 bit] 10bit
    Encoding settings                        : cpuid=1050111 / frame-threads=6 / numa-pools=20,20 / wpp / no-pmode / no-pme / no-psnr / no-ssim / log-level=2 / input-csp=1 / input-res=3840x2160 / interlace=0 / total-frames=0 / level-idc=51 / high-tier=1 / uhd-bd=1 / ref=4 / no-allow-non-conformance / repeat-headers / annexb / aud / hrd / info / hash=0 / no-temporal-layers / no-open-gop / min-keyint=1 / keyint=24 / gop-lookahead=0 / bframes=4 / b-adapt=2 / b-pyramid / bframe-bias=0 / rc-lookahead=25 / lookahead-slices=4 / scenecut=40 / radl=0 / no-intra-refresh / ctu=64 / min-cu-size=8 / rect / no-amp / max-tu-size=32 / tu-inter-depth=1 / tu-intra-depth=1 / limit-tu=0 / rdoq-level=2 / dynamic-rd=0.00 / no-ssim-rd / signh-i-d-e / no-tskip / nr-intra=0 / nr-inter=0 / no-constrained-intra / strong-intra-smoothing / max-merge=3 / limit-refs=3 / limit-modes / me=3 / subme=3 / merange=57 / temporal-mvp / weightp / no-weightb / no-analyze-src-pics / deblock=0:0 / sao / no-sao-non-deblock / rd=4 / no-early-skip / rskip / no-fast-intra / no-tskip-fast / no-cu-lossless / no-b-intra / no-splitrd-skip / rdpenalty=0 / psy-rd=2.00 / psy-rdoq=1.00 / no-rd-refine / no-lossless / cbqpoffs=0 / crqpoffs=0 / rc=abr / bitrate=77000 / qcomp=0.60 / qpstep=4 / stats-write=1 / stats-read=0 / slow-firstpass / vbv-maxrate=85000 / vbv-bufsize=85000 / vbv-init=0.9 / ipratio=1.40 / pbratio=1.30 / aq-mode=1 / aq-strength=1.00 / cutree / zone-count=0 / no-strict-cbr / qg-size=32 / no-rc-grain / qpmax=69 / qpmin=0 / no-const-vbv / sar=1 / overscan=0 / videoformat=5 / range=0 / colorprim=9 / transfer=16 / colormatrix=9 / chromaloc=1 / chromaloc-top=2 / chromaloc-bottom=2 / display-window=0 / master-display=G(8500,39850)B(6550,2300)R(35400,14600)WP(15635,16450)L(40000000,1) / max-cll=1082,715 / min-luma=0 / max-luma=1023 / log2-max-poc-lsb=8 / vui-timing-info / vui-hrd-info / slices=1 / no-opt-qp-pps / no-opt-ref-list-length-pps / no-multi-pass-opt-rps / scenecut-bias=0.05 / no-opt-cu-delta-qp / no-aq-motion / hdr / no-hdr-opt / no-dhdr10-opt / analysis-reuse-level=5 / scale-factor=0 / refine-intra=0 / refine-inter=0 / refine-mv=0 / no-limit-sao / ctu-info=0 / no-lowpass-dct / refine-mv-type=0 / copy-pic=1
    Language                                 : English
    Default                                  : Yes
    Forced                                   : No
    Color range                              : Limited
    Color primaries                          : BT.2020
    Transfer characteristics                 : PQ
    Matrix coefficients                      : BT.2020 non-constant
    Mastering display color primaries        : BT.2020
    Mastering display luminance              : min: 0.0001 cd/m2, max: 4000 cd/m2
    Maximum Content Light Level              : 1082 cd/m2
    Maximum Frame-Average Light Level        : 715 cd/m2
    
    Audio #1
    ID                                       : 2
    Format                                   : DTS XLL
    Format/Info                              : Digital Theater Systems
    Commercial name                          : DTS-HD Master Audio
    Codec ID                                 : A_DTS
    Duration                                 : 1 h 41 min
    Bit rate mode                            : Variable
    Bit rate                                 : 4 118 kb/s
    Channel(s)                               : 6 channels
    Channel layout                           : C L R Ls Rs LFE
    Sampling rate                            : 48.0 kHz
    Frame rate                               : 93.750 FPS (512 SPF)
    Bit depth                                : 24 bits
    Compression mode                         : Lossless
    Stream size                              : 2.91 GiB (5%)
    Title                                    : Original
    Language                                 : English
    Default                                  : Yes
    Forced                                   : No
    
    Audio #2
    ID                                       : 3
    Format                                   : AC-3
    Format/Info                              : Audio Coding 3
    Commercial name                          : Dolby Digital
    Codec ID                                 : A_AC3
    Duration                                 : 1 h 40 min
    Bit rate mode                            : Constant
    Bit rate                                 : 448 kb/s
    Channel(s)                               : 6 channels
    Channel layout                           : L R C LFE Ls Rs
    Sampling rate                            : 48.0 kHz
    Frame rate                               : 31.250 FPS (1536 SPF)
    Compression mode                         : Lossy
    Delay relative to video                  : 16 s 0 ms
    Stream size                              : 322 MiB (1%)
    Title                                    : Thai DVD Master
    Language                                 : Thai
    Service kind                             : Complete Main
    Default                                  : No
    Forced                                   : No
    
    Text #1
    ID                                       : 4
    Format                                   : PGS
    Muxing mode                              : zlib
    Codec ID                                 : S_HDMV/PGS
    Codec ID/Info                            : Picture based subtitle format used on BDs/HD-DVDs
    Duration                                 : 1 h 29 min
    Bit rate                                 : 30.1 kb/s
    Count of elements                        : 1400
    Stream size                              : 19.2 MiB (0%)
    Title                                    : Angsana UPC
    Language                                 : Thai
    Default                                  : Yes
    Forced                                   : No
    
    Text #2
    ID                                       : 5
    Format                                   : PGS
    Muxing mode                              : zlib
    Codec ID                                 : S_HDMV/PGS
    Codec ID/Info                            : Picture based subtitle format used on BDs/HD-DVDs
    Duration                                 : 1 h 29 min
    Bit rate                                 : 26.8 kb/s
    Count of elements                        : 1400
    Stream size                              : 17.1 MiB (0%)
    Title                                    : Tahoma
    Language                                 : Thai
    Default                                  : No
    Forced                                   : No
    
    Text #3
    ID                                       : 6
    Format                                   : VobSub
    Muxing mode                              : zlib
    Codec ID                                 : S_VOBSUB
    Codec ID/Info                            : Picture based subtitle format used on DVDs
    Duration                                 : 1 h 29 min
    Bit rate                                 : 6 665 b/s
    Count of elements                        : 700
    Stream size                              : 4.26 MiB (0%)
    Title                                    : Angsana UPC
    Language                                 : Thai
    Default                                  : No
    Forced                                   : No
    
    Text #4
    ID                                       : 7
    Format                                   : VobSub
    Muxing mode                              : zlib
    Codec ID                                 : S_VOBSUB
    Codec ID/Info                            : Picture based subtitle format used on DVDs
    Duration                                 : 1 h 29 min
    Bit rate                                 : 6 001 b/s
    Count of elements                        : 700
    Stream size                              : 3.83 MiB (0%)
    Title                                    : Tahoma
    Language                                 : Thai
    Default                                  : No
    Forced                                   : No
    
    Text #5
    ID                                       : 8
    Format                                   : PGS
    Muxing mode                              : zlib
    Codec ID                                 : S_HDMV/PGS
    Codec ID/Info                            : Picture based subtitle format used on BDs/HD-DVDs
    Duration                                 : 1 h 29 min
    Bit rate                                 : 17.1 kb/s
    Count of elements                        : 1256
    Stream size                              : 10.9 MiB (0%)
    Title                                    : English
    Language                                 : English
    Default                                  : No
    Forced                                   : No
    
    Text #6
    ID                                       : 9
    Format                                   : UTF-8
    Codec ID                                 : S_TEXT/UTF8
    Codec ID/Info                            : UTF-8 Plain Text
    Duration                                 : 1 h 29 min
    Bit rate                                 : 27 b/s
    Count of elements                        : 629
    Stream size                              : 17.9 KiB (0%)
    Title                                    : Full
    Language                                 : English
    Default                                  : No
    Forced                                   : No
    จับภาพตัวหนัง


    Download: cornfile
    http://cornfile.com/sxu5hujb675x
    Download: mekafile
    meka อัพไม่ได้ครับ หนังค่าย M

  2. #2
    Senior Member
    สมัครเมื่อ
    Jun 2014
    โพสต์
    2,993
    Thanks
    0
    Thanked 0 Times in 0 Posts
    ขอบคุณครับ

+ ตอบกลับกระทู้

ข้อมูลกระทู้

Users Browsing this Thread

ในขณะนี้มี 1 ท่านดูกระทู้อยู่. (0 สมาชิกและ 1 ผู้เยี่ยมชม)

     

กฎการโพสต์ข้อความ

  • ท่าน ไม่สามารถ ตั้งกระทู้ใหม่ได้
  • ท่าน ไม่สามารถ ตอบกระทู้ได้
  • ท่าน ไม่สามารถ แนบไฟล์ได้
  • ท่าน ไม่สามารถ แก้ไขข้อความโพสต์ได้
  • BB code สถานะ เปิด
  • Smilies สถานะ เปิด
  • [IMG] สถานะ เปิด
  • HTML สถานะ ปิด