+ ตอบกลับกระทู้
สรุปผลการค้นหา 1 ถึง 2 จากทั้งหมด 2
  1. #1
    Administrators รูปส่วนตัว Duckload.us
    สมัครเมื่อ
    Dec 2010
    โพสต์
    118,387
    Thanks
    7
    Thanked 124,474 Times in 55,703 Posts

    Question [ฝรั่ง]-{เสียงไทยโรง}(.10bit.SDR.HEVC)**Birds of Prey 2020 : ทีมนกผู้ล่า กับ ฮาร์ลีย์ ควินน์ ผู้เริดเชิด (2020)**[เสียงอังกฤษDL.DD+5.1.Atmos+เสียงไทยโรง : บรรยายไทยPGSคมชัด+อังกฤษ]-Encode.H.265.2160p. [Modified]-[พากย์ไทยโรง]




    SS



    Quote:
    เรื่องราวอีกด้านที่บอกเล่าผ่าน ฮาร์ลีย์ ควินน์ ผู้เริดเชิด” ซึ่งมีเพียงเธอเท่านั้นที่จะเล่าได้ เมื่อวายร้ายที่ชอบหลงตัวเองแห่งก็อตแธมอย่าง โรมัน ซิโอนิส และ ซาส มือขวาจอมขยันของเขาพุ่งเป้าไปที่สาวน้อยที่ชื่อ แคส ทั้งเมืองต้องเกิดเหตุการณ์วุ่นวายในการตามหาเธอ บนเส้นทางที่ขัดแย้งกันระหว่าง ฮาร์ลีย์ ฮันเทรส, แบล็ค แคนารี่ และ เรเน มอนโทย่า เหมือนจะไม่มีทางเลือกอื่นใด นอกจากจะร่วมมือกันโค่นโรมันให้ได้ ...

    Code:
    Format                                   : Matroska
    Format version                           : Version 4
    File size                                : 18.1 GiB
    Duration                                 : 1 h 48 min
    Overall bit rate                         : 23.8 Mb/s
    Encoded date                             : UTC 2020-03-25 00:12:54
    Writing application                      : mkvmerge v44.0.0 ('Domino') 64-bit
    Writing library                          : libebml v1.3.10 + libmatroska v1.5.2
    
    Video
    ID                                       : 1
    Format                                   : HEVC
    Format/Info                              : High Efficiency Video Coding
    Format profile                           : Main [email protected]@High
    Codec ID                                 : V_MPEGH/ISO/HEVC
    Duration                                 : 1 h 48 min
    Bit rate                                 : 22.1 Mb/s
    Width                                    : 3 840 pixels
    Height                                   : 2 160 pixels
    Display aspect ratio                     : 16:9
    Frame rate mode                          : Constant
    Frame rate                               : 23.976 (24000/1001) FPS
    Color space                              : YUV
    Chroma subsampling                       : 4:2:0
    Bit depth                                : 10 bits
    Bits/(Pixel*Frame)                       : 0.111
    Stream size                              : 16.8 GiB (93%)
    Default                                  : Yes
    Forced                                   : No
    Color range                              : Limited
    Color primaries                          : BT.709
    Transfer characteristics                 : BT.709
    Matrix coefficients                      : BT.709
    
    Audio #1
    ID                                       : 2
    Format                                   : E-AC-3 JOC
    Format/Info                              : Enhanced AC-3 with Joint Object Coding
    Commercial name                          : Dolby Digital Plus with Dolby Atmos
    Codec ID                                 : A_EAC3
    Duration                                 : 1 h 48 min
    Bit rate mode                            : Constant
    Bit rate                                 : 640 kb/s
    Channel(s)                               : 6 channels
    Channel layout                           : L R C LFE Ls Rs
    Sampling rate                            : 48.0 kHz
    Frame rate                               : 31.250 FPS (1536 SPF)
    Compression mode                         : Lossy
    Stream size                              : 498 MiB (3%)
    Language                                 : English
    Service kind                             : Complete Main
    Default                                  : Yes
    Forced                                   : No
    Complexity index                         : 16
    Number of dynamic objects                : 15
    Bed channel count                        : 1 channel
    Bed channel configuration                : LFE
    
    Audio #2
    ID                                       : 3
    Format                                   : AC-3
    Format/Info                              : Audio Coding 3
    Commercial name                          : Dolby Digital
    Codec ID                                 : A_AC3
    Duration                                 : 1 h 48 min
    Bit rate mode                            : Constant
    Bit rate                                 : 640 kb/s
    Channel(s)                               : 6 channels
    Channel layout                           : L R C LFE Ls Rs
    Sampling rate                            : 48.0 kHz
    Frame rate                               : 31.250 FPS (1536 SPF)
    Compression mode                         : Lossy
    Delay relative to video                  : 1 s 0 ms
    Stream size                              : 498 MiB (3%)
    Title                                    : Thai Rong
    Language                                 : Thai
    Service kind                             : Complete Main
    Default                                  : No
    Forced                                   : No
    
    Audio #3
    ID                                       : 4
    Format                                   : AC-3
    Format/Info                              : Audio Coding 3
    Commercial name                          : Dolby Digital
    Codec ID                                 : A_AC3
    Duration                                 : 1 h 48 min
    Bit rate mode                            : Constant
    Bit rate                                 : 384 kb/s
    Channel(s)                               : 6 channels
    Channel layout                           : L R C LFE Ls Rs
    Sampling rate                            : 48.0 kHz
    Frame rate                               : 31.250 FPS (1536 SPF)
    Compression mode                         : Lossy
    Delay relative to video                  : 24 ms
    Stream size                              : 299 MiB (2%)
    Language                                 : English
    Service kind                             : Complete Main
    Default                                  : No
    Forced                                   : No
    
    Text #1
    ID                                       : 5
    Format                                   : PGS
    Muxing mode                              : zlib
    Codec ID                                 : S_HDMV/PGS
    Codec ID/Info                            : Picture based subtitle format used on BDs/HD-DVDs
    Duration                                 : 1 h 48 min
    Bit rate                                 : 45.0 kb/s
    Count of elements                        : 2932
    Stream size                              : 34.8 MiB (0%)
    Title                                    : Angsana UPC
    Language                                 : Thai
    Default                                  : Yes
    Forced                                   : No
    
    Text #2
    ID                                       : 6
    Format                                   : PGS
    Muxing mode                              : zlib
    Codec ID                                 : S_HDMV/PGS
    Codec ID/Info                            : Picture based subtitle format used on BDs/HD-DVDs
    Duration                                 : 1 h 48 min
    Bit rate                                 : 40.0 kb/s
    Count of elements                        : 2932
    Stream size                              : 31.0 MiB (0%)
    Title                                    : Tahoma
    Language                                 : Thai
    Default                                  : No
    Forced                                   : No
    
    Text #3
    ID                                       : 7
    Format                                   : VobSub
    Muxing mode                              : zlib
    Codec ID                                 : S_VOBSUB
    Codec ID/Info                            : Picture based subtitle format used on DVDs
    Duration                                 : 1 h 48 min
    Bit rate                                 : 9 905 b/s
    Count of elements                        : 1466
    Stream size                              : 7.67 MiB (0%)
    Title                                    : Angsana UPC
    Language                                 : Thai
    Default                                  : No
    Forced                                   : No
    
    Text #4
    ID                                       : 8
    Format                                   : VobSub
    Muxing mode                              : zlib
    Codec ID                                 : S_VOBSUB
    Codec ID/Info                            : Picture based subtitle format used on DVDs
    Duration                                 : 1 h 48 min
    Bit rate                                 : 8 943 b/s
    Count of elements                        : 1466
    Stream size                              : 6.93 MiB (0%)
    Title                                    : Tahoma
    Language                                 : Thai
    Default                                  : No
    Forced                                   : No
    
    Text #5
    ID                                       : 9
    Format                                   : UTF-8
    Codec ID                                 : S_TEXT/UTF8
    Codec ID/Info                            : UTF-8 Plain Text
    Duration                                 : 1 h 48 min
    Bit rate                                 : 97 b/s
    Count of elements                        : 1850
    Stream size                              : 77.0 KiB (0%)
    Language                                 : English
    Default                                  : No
    Forced                                   : No
    
    Text #6
    ID                                       : 10
    Format                                   : UTF-8
    Codec ID                                 : S_TEXT/UTF8
    Codec ID/Info                            : UTF-8 Plain Text
    Duration                                 : 1 h 48 min
    Bit rate                                 : 109 b/s
    Count of elements                        : 2100
    Stream size                              : 86.5 KiB (0%)
    Title                                    : SDH
    Language                                 : English
    Default                                  : No
    Forced                                   : No
    จับภาพตัวหนัง


    Download: cornfile
    http://cornfile.com/i768ddjp5gzd
    Download: mekafile
    http://www.filecondo.com/dl.php?f=MQe4cac6VaeY

  2. #2
    Senior Member
    สมัครเมื่อ
    Jun 2014
    โพสต์
    4,621
    Thanks
    0
    Thanked 0 Times in 0 Posts
    ขอบคุณครับ

+ ตอบกลับกระทู้

ข้อมูลกระทู้

Users Browsing this Thread

ในขณะนี้มี 1 ท่านดูกระทู้อยู่. (0 สมาชิกและ 1 ผู้เยี่ยมชม)

     

กฎการโพสต์ข้อความ

  • ท่าน ไม่สามารถ ตั้งกระทู้ใหม่ได้
  • ท่าน ไม่สามารถ ตอบกระทู้ได้
  • ท่าน ไม่สามารถ แนบไฟล์ได้
  • ท่าน ไม่สามารถ แก้ไขข้อความโพสต์ได้
  • BB code สถานะ เปิด
  • Smilies สถานะ เปิด
  • [IMG] สถานะ เปิด
  • HTML สถานะ ปิด