+ ตอบกลับกระทู้
สรุปผลการค้นหา 1 ถึง 2 จากทั้งหมด 2
  1. #1
    Administrators รูปส่วนตัว Duckload.us
    สมัครเมื่อ
    Dec 2010
    โพสต์
    112,526
    Thanks
    7
    Thanked 118,303 Times in 53,580 Posts

    Question [ฝรั่ง]-Bloodshot (2020) จักรกลเลือดดุ - [พากย์ไทยโรง+อังกฤษ] [บรรยายไทยมาสเตอร์+อังกฤษ] 1080p.WEB-DL.H264.AC3.th




    เรื่องราวของ Ray Garrison ทหารผู้เสียชีวิตระหว่างรบในสงคราม แต่เขาได้รับการชุบชีวิตใหม่ขึ้นมาอีกครั้งโดย RST Corporation บริษัทชั้นนำที่ศึกษาเกี่ยวกับเทคโนโลยีที่ฝังไว้ในเ ลือด นาไนท์ส ในชื่อว่า บลัดช็อต (Bloodshot) ที่ได้เพิ่มศักยภาพให้ตัว Ray ไม่ว่าจะเป็นพละกำลัง ความว่องไว และฟื้นฟูเซลล์ที่บาดเจ็บ ทำให้เขามีความแข็งแกร่งเหนือคนทั่วไป แต่ความทรงจำที่หายไปของเขากลับยิ่งสับสนมากยิ่งขึ้น เมื่อบริษัทใส่ข้อมูลความทรงจำต่างๆ มั่วไปหมด เขาจึงต้องออกตามหาว่าเรื่องจริงไหนเป็นเรื่องจริง และเรื่องไหนถูกแต่งเติมขึ้นมา


    Duration : 1 h 49 min
    Overall bit rate : 5 663 kb/s
    Encoded date : UTC 2020-03-25 11:11:34
    Writing application : mkvmerge v44.0.0 ('Domino') 64-bit
    Writing library : libebml v1.3.10 + libmatroska v1.5.2
    Cover : Yes
    Attachments : cover

    Video
    ID : 1
    Format : AVC
    Format/Info : Advanced Video Codec
    Format profile : [email protected]
    Format settings : CABAC / 5 Ref Frames
    Format settings, CABAC : Yes
    Format settings, Reference : 5 frames
    Codec ID : V_MPEG4/ISO/AVC
    Duration : 1 h 49 min
    Bit rate : 4 538 kb/s
    Width : 1 920 pixels
    Height : 798 pixels
    Display aspect ratio : 2.40:1
    Frame rate mode : Constant
    Frame rate : 23.976 FPS
    Color space : YUV
    Chroma subsampling : 4:2:0
    Bit depth : 8 bits
    Scan type : Progressive
    Bits/(Pixel*Frame) : 0.124
    Stream size : 3.47 GiB (80%)
    Language : English
    Default : Yes
    Forced : No
    Color range : Limited
    Color primaries : BT.709
    Transfer characteristics : BT.709
    Matrix coefficients : BT.709

    Audio #1
    ID : 2
    Format : AC-3
    Format/Info : Audio Coding 3
    Commercial name : Dolby Digital
    Codec ID : A_AC3
    Duration : 1 h 49 min
    Bit rate mode : Constant
    Bit rate : 384 kb/s
    Channel(s) : 6 channels
    Channel layout : L R C LFE Ls Rs
    Sampling rate : 48.0 kHz
    Frame rate : 31.250 FPS (1536 SPF)
    Compression mode : Lossy
    Delay relative to video : -43 ms
    Stream size : 300 MiB (7%)
    Language : English
    Service kind : Complete Main
    Default : No
    Forced : No

    Audio #2
    ID : 3
    Format : AC-3
    Format/Info : Audio Coding 3
    Commercial name : Dolby Digital
    Codec ID : A_AC3
    Duration : 1 h 49 min
    Bit rate mode : Constant
    Bit rate : 640 kb/s
    Channel(s) : 6 channels
    Channel layout : L R C LFE Ls Rs
    Sampling rate : 48.0 kHz
    Frame rate : 31.250 FPS (1536 SPF)
    Compression mode : Lossy
    Delay relative to video : -43 ms
    Stream size : 500 MiB (11%)
    Language : Thai
    Service kind : Complete Main
    Default : Yes
    Forced : No

    Text #1
    ID : 4
    Format : VobSub
    Muxing mode : zlib
    Codec ID : S_VOBSUB
    Codec ID/Info : Picture based subtitle format used on DVDs
    Duration : 1 h 47 min
    Bit rate : 10.8 kb/s
    Count of elements : 1493
    Stream size : 8.29 MiB (0%)
    Language : English
    Default : No
    Forced : No

    Text #2
    ID : 5
    Format : UTF-8
    Codec ID : S_TEXT/UTF8
    Codec ID/Info : UTF-8 Plain Text
    Duration : 1 h 47 min
    Bit rate : 53 b/s
    Count of elements : 1493
    Stream size : 42.0 KiB (0%)
    Language : English
    Default : No
    Forced : No

    Text #3
    ID : 6
    Format : PGS
    Muxing mode : zlib
    Codec ID : S_HDMV/PGS
    Codec ID/Info : Picture based subtitle format used on BDs/HD-DVDs
    Duration : 1 h 47 min
    Bit rate : 43.7 kb/s
    Count of elements : 2986
    Stream size : 33.6 MiB (1%)
    Title : Gray
    Language : English
    Default : No
    Forced : No

    Text #4
    ID : 7
    Format : PGS
    Muxing mode : zlib
    Codec ID : S_HDMV/PGS
    Codec ID/Info : Picture based subtitle format used on BDs/HD-DVDs
    Duration : 1 h 47 min
    Bit rate : 43.7 kb/s
    Count of elements : 2986
    Stream size : 33.6 MiB (1%)
    Title : White
    Language : English
    Default : Yes
    Forced : No

    Text #5
    ID : 8
    Format : PGS
    Muxing mode : zlib
    Codec ID : S_HDMV/PGS
    Codec ID/Info : Picture based subtitle format used on BDs/HD-DVDs
    Duration : 1 h 47 min
    Bit rate : 43.7 kb/s
    Count of elements : 2986
    Stream size : 33.6 MiB (1%)
    Title : Yellow
    Language : English
    Default : No
    Forced : No

    Text #6
    ID : 9
    Format : VobSub
    Muxing mode : zlib
    Codec ID : S_VOBSUB
    Codec ID/Info : Picture based subtitle format used on DVDs
    Duration : 1 h 48 min
    Bit rate : 5 645 b/s
    Count of elements : 1112
    Stream size : 4.37 MiB (0%)
    Language : Thai
    Default : No
    Forced : No

    Text #7
    ID : 10
    Format : UTF-8
    Codec ID : S_TEXT/UTF8
    Codec ID/Info : UTF-8 Plain Text
    Duration : 1 h 48 min
    Bit rate : 79 b/s
    Count of elements : 1112
    Stream size : 63.2 KiB (0%)
    Language : Thai
    Default : No
    Forced : No

    Text #8
    ID : 11
    Format : PGS
    Muxing mode : zlib
    Codec ID : S_HDMV/PGS
    Codec ID/Info : Picture based subtitle format used on BDs/HD-DVDs
    Duration : 1 h 48 min
    Bit rate : 23.1 kb/s
    Count of elements : 2224
    Stream size : 17.9 MiB (0%)
    Title : Gray
    Language : Thai
    Default : No
    Forced : No

    Text #9
    ID : 12
    Format : PGS
    Muxing mode : zlib
    Codec ID : S_HDMV/PGS
    Codec ID/Info : Picture based subtitle format used on BDs/HD-DVDs
    Duration : 1 h 48 min
    Bit rate : 23.1 kb/s
    Count of elements : 2224
    Stream size : 17.9 MiB (0%)
    Title : White
    Language : Thai
    Default : No
    Forced : No

    Text #10
    ID : 13
    Format : PGS
    Muxing mode : zlib
    Codec ID : S_HDMV/PGS
    Codec ID/Info : Picture based subtitle format used on BDs/HD-DVDs
    Duration : 1 h 48 min
    Bit rate : 23.1 kb/s
    Count of elements : 2224
    Stream size : 17.9 MiB (0%)
    Title : Yellow
    Language : Thai
    Default : No
    Forced : No




    Download: cornfile
    http://cornfile.com/bsxvvy8c1rhu
    Download: mekafile
    http://www.mekafile.com/dl.php?f=a8f425c6WVHf

  2. The Following 2 Users Say Thank You to Duckload.us For This Useful Post:

    amorn wichian (03-27-2020), Wesker_TOT (วันนี้)

  3. #2
    Senior Member
    สมัครเมื่อ
    Jun 2014
    โพสต์
    2,990
    Thanks
    0
    Thanked 0 Times in 0 Posts
    ขอบคุณครับ

+ ตอบกลับกระทู้

ข้อมูลกระทู้

Users Browsing this Thread

ในขณะนี้มี 1 ท่านดูกระทู้อยู่. (0 สมาชิกและ 1 ผู้เยี่ยมชม)

     

กฎการโพสต์ข้อความ

  • ท่าน ไม่สามารถ ตั้งกระทู้ใหม่ได้
  • ท่าน ไม่สามารถ ตอบกระทู้ได้
  • ท่าน ไม่สามารถ แนบไฟล์ได้
  • ท่าน ไม่สามารถ แก้ไขข้อความโพสต์ได้
  • BB code สถานะ เปิด
  • Smilies สถานะ เปิด
  • [IMG] สถานะ เปิด
  • HTML สถานะ ปิด