+ ตอบกลับกระทู้
สรุปผลการค้นหา 1 ถึง 3 จากทั้งหมด 3
  1. #1
    Administrators รูปส่วนตัว Duckload.us
    สมัครเมื่อ
    Dec 2010
    โพสต์
    114,610
    Thanks
    7
    Thanked 120,940 Times in 54,364 Posts

    Question [ญี่ปุ่น]-[20+] Visitor Q (2001) ครอบครัวโรคจิต-Encode.AC-3.1080p. [Modified]-[Soundtrack บรรยายไทย]



    เรื่องย่อ
    A father, who is a failed former television reporter tries to mount a documentary violence and sex among youths. He proceeds to have sex with his daughter who is now a prostitute and films his son being humiliated and hit by classmates. Q , a perfect stranger somehow gets involved and enter the bizzare family who's son beats his mom, who in turn is also a prostitute and a heroin addict...


    Format : Matroska
    Format version : Version 4
    File size : 3.01 GiB
    Duration : 1 h 28 min
    Overall bit rate mode : Variable
    Overall bit rate : 4 862 kb/s
    Encoded date : UTC 2020-03-25 11:42:21
    Writing application : mkvmerge v44.0.0 ('Domino') 64-bit
    Writing library : libebml v1.3.10 + libmatroska v1.5.2

    Video
    ID : 1
    Format : AVC
    Format/Info : Advanced Video Codec
    Format profile : [email protected]
    Format settings : CABAC / 1 Ref Frames
    Format settings, CABAC : Yes
    Format settings, Reference : 1 frame
    Codec ID : V_MPEG4/ISO/AVC
    Duration : 1 h 28 min
    Bit rate mode : Variable
    Bit rate : 4 667 kb/s
    Maximum bit rate : 14.2 Mb/s
    Width : 1 440 pixels
    Height : 1 080 pixels
    Display aspect ratio : 4:3
    Frame rate mode : Constant
    Frame rate : 25.000 FPS
    Color space : YUV
    Chroma subsampling : 4:2:0
    Bit depth : 8 bits
    Scan type : Progressive
    Bits/(Pixel*Frame) : 0.120
    Stream size : 2.89 GiB (96%)
    Language : Japanese
    Default : Yes
    Forced : No

    Audio
    ID : 2
    Format : AC-3
    Format/Info : Audio Coding 3
    Commercial name : Dolby Digital
    Codec ID : A_AC3
    Duration : 1 h 28 min
    Bit rate mode : Constant
    Bit rate : 192 kb/s
    Channel(s) : 2 channels
    Channel layout : L R
    Sampling rate : 48.0 kHz
    Frame rate : 31.250 FPS (1536 SPF)
    Compression mode : Lossy
    Stream size : 122 MiB (4%)
    Title : AC-3 Japanese
    Language : Japanese
    Service kind : Complete Main
    Default : Yes
    Forced : No

    Text #1
    ID : 3
    Format : VobSub
    Muxing mode : zlib
    Codec ID : S_VOBSUB
    Codec ID/Info : Picture based subtitle format used on DVDs
    Duration : 1 h 23 min
    Bit rate : 2 268 b/s
    Count of elements : 424
    Stream size : 1.36 MiB (0%)
    Title : Sub Thai DVD MASTER
    Language : Thai
    Default : Yes
    Forced : No

    Text #2
    ID : 4
    Format : VobSub
    Muxing mode : zlib
    Codec ID : S_VOBSUB
    Codec ID/Info : Picture based subtitle format used on DVDs
    Duration : 1 h 23 min
    Bit rate : 2 230 b/s
    Count of elements : 424
    Stream size : 1.34 MiB (0%)
    Language : English
    Default : No
    Forced : No

    Menu
    00:00:00.040 : :Chapter 01
    00:13:07.160 : :Chapter 02
    00:21:45.720 : :Chapter 03
    00:30:59.680 : :Chapter 04
    00:39:02.240 : :Chapter 05
    00:51:32.600 : :Chapter 06
    01:01:17.200 : :Chapter 07
    01:08:30.200 : :Chapter 08
    01:24:07.400 : :Chapter 09
    01:25:22.400 : :Chapter 10
    01:27:08.520 : :Chapter 11



    http://cornfile.com/66ioqlxciszi
    http://www.mekafile.com/dl.php?f=b9a451c6Xy2q

  2. #2
    Senior Member
    สมัครเมื่อ
    Jun 2014
    โพสต์
    3,881
    Thanks
    0
    Thanked 0 Times in 0 Posts
    ขอบคุณครับ

  3. #3
    Senior Member
    สมัครเมื่อ
    Jul 2013
    โพสต์
    584
    Thanks
    0
    Thanked 0 Times in 0 Posts
    ดูแล้วจะจิตตกมั้ยเนี้ย ขอบคุณครับ

+ ตอบกลับกระทู้

ข้อมูลกระทู้

Users Browsing this Thread

ในขณะนี้มี 1 ท่านดูกระทู้อยู่. (0 สมาชิกและ 1 ผู้เยี่ยมชม)

     

กฎการโพสต์ข้อความ

  • ท่าน ไม่สามารถ ตั้งกระทู้ใหม่ได้
  • ท่าน ไม่สามารถ ตอบกระทู้ได้
  • ท่าน ไม่สามารถ แนบไฟล์ได้
  • ท่าน ไม่สามารถ แก้ไขข้อความโพสต์ได้
  • BB code สถานะ เปิด
  • Smilies สถานะ เปิด
  • [IMG] สถานะ เปิด
  • HTML สถานะ ปิด