+ ตอบกลับกระทู้
สรุปผลการค้นหา 1 ถึง 5 จากทั้งหมด 5
  1. #1
    Administrators รูปส่วนตัว Duckload.us
    สมัครเมื่อ
    Dec 2010
    โพสต์
    114,610
    Thanks
    7
    Thanked 120,940 Times in 54,364 Posts

    Question (ฝรั่ง.ใหม่.ไทยมาสเตอร์)-Bad Boys For Life (2020) | แบดบอยส์ คู่หูตลอดกาล ขวางทางนรก-[1080p.HDRip.X264][Sound:Eng/Thai AC3 2.0:Master][ SUB:Eng.PGS]




    เรื่องราวของสองตำรวจคู่หู ไมค์ และ มาร์คัส ที่จับคู่กับปราบปรามเหล่าร้ายมาเกินสิบปี แต่ด้วยอายุที่มากขึ้น บวกกับครอบครัวของ “มาร์คัส” เริ่มมีสมาชิกเพิ่มมากขึ้นจนเขาต้องคิดถึงเรื่องการเ กษียณ ผิดกับทางฝั่งของ “ไมค์” ที่ยังแข็งแรงและยังโสด “ไมค์” ยังอยากจะจับคู่ลุยแหลกในแบบฉบับ แบดบอยส์ ต่อไป แต่ “มาร์คัส” ไม่ต้องการ แต่เหตุการณ์ในอดีตกลับตามมาสร้างความปั่นป่วนให้กับ “ไมค์” จนทั้งสองต้องจับมือผนึกกำลังกันเพื่อ One Last Time

    Format : Matroska
    Format version : Version 4
    File size : 3.96 GiB
    Duration : 2 h 2 min
    Overall bit rate : 4 617 kb/s
    Movie name : Bad.Boys.for.Life.2020.1080p.HDRip.x264.AC3._&#169 ;GOLD CUP™
    Video
    ID : 1
    Format : AVC
    Format/Info : Advanced Video Codec
    Format profile : [email protected]
    Format settings : CABAC / 1 Ref Frames
    Format settings, CABAC : Yes
    Format settings, Reference : 1 frame
    Format settings, GOP : M=1, N=25
    Codec ID : V_MPEG4/ISO/AVC
    Duration : 2 h 2 min
    Bit rate mode : Constant
    Bit rate : 3 500 kb/s
    Width : 1 920 pixels
    Height : 800 pixels
    Display aspect ratio : 2.40:1
    Frame rate mode : Constant
    Frame rate : 29.970 (30000/1001) FPS
    Color space : YUV
    Chroma subsampling : 4:2:0
    Bit depth : 8 bits
    Scan type : Progressive
    Bits/(Pixel*Frame) : 0.076
    Stream size : 3.00 GiB (76%)
    Title : Bad.Boys.for.Life.2020.1080p.HDRip.x264.AC3._&#169 ;GOLD CUP™
    Language : English
    Default : Yes
    Forced : No

    Audio #1
    ID : 2
    Format : AC-3
    Format/Info : Audio Coding 3
    Commercial name : Dolby Digital
    Codec ID : A_AC3
    Duration : 2 h 2 min
    Bit rate mode : Constant
    Bit rate : 448 kb/s
    Channel(s) : 2 channels
    Channel layout : L R
    Sampling rate : 44.1 kHz
    Frame rate : 28.711 FPS (1536 SPF)
    Compression mode : Lossy
    Stream size : 394 MiB (10%)
    Title : 2.0 AC3 Th 448k 393m [n]_©GOLD CUP™
    Language : Thai
    Service kind : Complete Main
    Default : Yes
    Forced : No

    Audio #2
    ID : 3
    Format : AC-3
    Format/Info : Audio Coding 3
    Commercial name : Dolby Digital
    Codec ID : A_AC3
    Duration : 2 h 2 min
    Bit rate mode : Constant
    Bit rate : 640 kb/s
    Channel(s) : 2 channels
    Channel layout : L R
    Sampling rate : 44.1 kHz
    Frame rate : 28.711 FPS (1536 SPF)
    Compression mode : Lossy
    Stream size : 562 MiB (14%)
    Title : 2.0 AC3 EN 640K 562M[N]_©GOLD CUP™
    Language : English
    Service kind : Complete Main
    Default : No
    Forced : No

    Text #1
    ID : 4
    Format : PGS
    Muxing mode : zlib
    Codec ID : S_HDMV/PGS
    Codec ID/Info : Picture based subtitle format used on BDs/HD-DVDs
    Duration : 1 h 57 min
    Bit rate : 22.0 kb/s
    Count of elements : 3534
    Stream size : 18.5 MiB (0%)
    Title : EN.PGS.YELLOW.72-47-17_©GOLD CUP™
    Language : English
    Default : Yes
    Forced : No

    Text #2
    ID : 5
    Format : PGS
    Muxing mode : zlib
    Codec ID : S_HDMV/PGS
    Codec ID/Info : Picture based subtitle format used on BDs/HD-DVDs
    Duration : 2 h 1 min
    Bit rate : 26.6 kb/s
    Count of elements : 4454
    Stream size : 23.1 MiB (1%)
    Title : EN-SDH.PGS.RED.72-47-17_©GOLD CUP™
    Language : English
    Default : No
    Forced : No





    **ไม่มีโลโก้ True ID **
    Download: cornfile
    http://cornfile.com/ulflpmqhacs5
    Download: mekafile
    http://www.mekafile.com/dl.php?f=KK84c9c72Bin

  2. The Following User Says Thank You to Duckload.us For This Useful Post:

    bigbang06 (03-28-2020)

  3. #2
    Junior Member
    สมัครเมื่อ
    Apr 2014
    โพสต์
    6
    Thanks
    0
    Thanked 0 Times in 0 Posts
    รอเวอชั้นเสียงพาร์กแบบโรงครับ เสียงพาร์กของทรูไม่ชินหู

  4. #3
    Senior Member
    สมัครเมื่อ
    Jun 2014
    โพสต์
    3,881
    Thanks
    0
    Thanked 0 Times in 0 Posts
    พากย์โรง น้าติ่งให้เสียง will smith
    ขอบคุณครับ

  5. #4
    Junior Member รูปส่วนตัว iamebanhami
    สมัครเมื่อ
    Mar 2017
    โพสต์
    17
    Thanks
    0
    Thanked 0 Times in 0 Posts
    เสียง พากย์เวอชั่นนี้ถือok ติดตรง เสียงของ will smith แค่นั้น

  6. #5
    Senior Member
    สมัครเมื่อ
    Jul 2013
    โพสต์
    584
    Thanks
    0
    Thanked 0 Times in 0 Posts
    เดี๋ญวต้องลองดู ยังไม่ได้ดูเลยครับ ขอบคุณครับ

+ ตอบกลับกระทู้

ข้อมูลกระทู้

Users Browsing this Thread

ในขณะนี้มี 1 ท่านดูกระทู้อยู่. (0 สมาชิกและ 1 ผู้เยี่ยมชม)

     

กฎการโพสต์ข้อความ

  • ท่าน ไม่สามารถ ตั้งกระทู้ใหม่ได้
  • ท่าน ไม่สามารถ ตอบกระทู้ได้
  • ท่าน ไม่สามารถ แนบไฟล์ได้
  • ท่าน ไม่สามารถ แก้ไขข้อความโพสต์ได้
  • BB code สถานะ เปิด
  • Smilies สถานะ เปิด
  • [IMG] สถานะ เปิด
  • HTML สถานะ ปิด