+ ตอบกลับกระทู้
สรุปผลการค้นหา 1 ถึง 5 จากทั้งหมด 5
  1. #1
    Administrators รูปส่วนตัว Duckload.us
    สมัครเมื่อ
    Dec 2010
    โพสต์
    114,610
    Thanks
    7
    Thanked 120,940 Times in 54,364 Posts

    Question [ฝรั่ง]-((ใหม่-พากย์ไทย.มาสเตอร์)) Downton Abbey (2019) ดาวน์ตัน แอบบีย์ พากย์ไทย DD-อังกฤษ DD 5.1 + ซับอังกฤษ-ไทย PGS คมชัดสุดๆ-Blu-ray.AC-3.1080p. [Modified]-[พากย์ไทย บรรยายไทย]



    Downton Abbey (2019) ดาวน์ตัน แอบบีย์ เดอะ มูฟวี่ จากเรื่องราวของตระกูลอันโด่งดังในอังกฤษที่ถูกตีแพร ่ในภาพยนต์ชุดหรือซีรีย์ ถูกนำกลับมาสร้างเป็นเวอร์ชั่นภาพยนตร์ Downton Abbey ในปี 2019 จะเล่าเรื่องตั้งแต่ช่วงปี 1927-1929 ในคฤหาสน์ดาวน์ตัน แอบบีย์ เตรียมการต้อนรับการเสด็จฯของกษัตริย์และพระราชินีแห ่งอังกฤษ พระเจ้าจอร์จที่ 5 และสมเด็จพระราชินีแมรี่ แต่ภายในของหนังถูกซ่อนเอาไว้ด้วยเรื่องราวของรักหัก สวาท ดราม่า หรือ ซ่อนเงื่อนปมของการถูกฆ่า

    Director : Michael Engler
    Produced by Julian Fellowes
    Gareth Neame
    Liz Trubridge
    Music by John Lunn
    Writers : Julian Fellowes (characters), Julian Fellowes (screenplay by)
    Stars : Michelle Dockery, Matthew Goode, Geraldine James
    Cinematography : Ben Smithard
    Edited by Mark Day
    Production Company : Perfect World Pictures
    Focus Features
    Carnival Films
    Distributed by Universal Pictures UK (United Kingdom)
    Focus Features (United States)
    Release date : 9 September 2019 (Leicester Square)
    13 September 2019 (United Kingdom)
    20 September 2019 (United States)
    Running time : 122 minutes
    Country : United Kingdom
    United States
    Thai
    Language : English, Thai
    SubTitles : English, Thai

    เรื่องย่อ :

    อังกฤษฤดูใบไม้ร่วงปี 1927 สิบแปดเดือนหลังจากเหตุการณ์ในซีรีส์กษัตริย์จอร์จที ่ 5 แห่งอังกฤษและคณะเดินทางไปเยี่ยมยอร์กเชียร์ซึ่งเขาต ้องการใช้เวลายามค่ำคืนที่วัด Downton Abbey หลังจากการประกาศในครั้งนี้มีการทำงานหนักมากมายที่ Downton Abbey ทันทีเพื่อเตรียมพร้อมสำหรับการเสด็จเยือนครั้งนี้แล ะแม้แต่ผู้ช่วยพ่อบ้านเกษียณ Charles Charles ก็ถูกเรียกตัวเข้ามาเพื่อให้แน่ใจว่าทุกอย่างดำเนินไ ปอย่างราบรื่น แต่การเข้าชมครั้งนี้ไม่ได้ไม่มีความเสี่ยง ท้ายที่สุดทอมแบรนสันสมาชิกในครอบครัวเป็นกบฏชาวไอริ ชและเจ้าหน้าที่ของคิงต้องการทำหน้าที่ของเจ้าหน้าที ่ของ Downton Abbey ซึ่งแน่นอนว่าพวกเขาจะไม่ยอมรับ แล้วก็มีสมาชิกในครอบครัวอีกคนหนึ่งของ Dowager Violet Crawley ในตำแหน่งผู้ติดตามกษัตริย์ซึ่งเธอมีข้อพิพาทเกี่ยวก ับมรดก สิ่งนี้จะถูกต่อสู้ในภายหลัง

    Code:
    General
    Unique ID                      : 239991026555265063004293881828969996540
    Complete name                  : Downton Abbey (2019) ดาวน์ตัน แอบบีย์ [Mini].mkv
    Format                         : Matroska
    Format version                 : Version 4 / Version 2
    File size                      : 2.66 GiB
    Duration                       : 2 h 1 min
    Overall bit rate               : 3 133 kb/s
    Movie name                     : Downton.Abbey.2019.1080p.BluRay.AVC.8bit.AAC.H264-P4TiP4T
    Encoded date                   : UTC 2020-03-28 14:50:00
    Writing application            : mkvmerge v41.0.0 ('Smarra') 64-bit
    Writing library                : libebml v1.3.9 + libmatroska v1.5.2
    Cover                          : Yes
    Attachments                    : cover
    
    Video
    ID                             : 1
    Format                         : AVC
    Format/Info                    : Advanced Video Codec
    Format profile                 : [email protected]
    Format settings, CABAC         : Yes
    Format settings, RefFrames     : 4 frames
    Codec ID                       : V_MPEG4/ISO/AVC
    Duration                       : 2 h 1 min
    Bit rate                       : 2 500 kb/s
    Width                          : 1 920 pixels
    Height                         : 804 pixels
    Display aspect ratio           : 2.40:1
    Frame rate mode                : Constant
    Frame rate                     : 23.976 (23976/1000) FPS
    Color space                    : YUV
    Chroma subsampling             : 4:2:0
    Bit depth                      : 8 bits
    Scan type                      : Progressive
    Bits/(Pixel*Frame)             : 0.068
    Stream size                    : 2.12 GiB (80%)
    Writing library                : x264 core 152 r2851M ba24899
    Encoding settings              : cabac=1 / ref=4 / deblock=1:-1:-17879
    Default                        : Yes
    Forced                         : No
    
    Audio #1
    ID                             : 2
    Format                         : AAC
    Format/Info                    : Advanced Audio Codec
    Format profile                 : LC
    Codec ID                       : A_AAC
    Duration                       : 2 h 1 min
    Bit rate                       : 224 kb/s
    Channel(s)                     : 6 channels
    Channel positions              : Front: L C R, Side: L R, LFE
    Sampling rate                  : 48.0 kHz
    Frame rate                     : 46.875 FPS (1024 SPF)
    Compression mode               : Lossy
    Delay relative to video        : -43 ms
    Stream size                    : 195 MiB (7%)
    Language                       : English
    Default                        : No
    Forced                         : No
    
    Audio #2
    ID                             : 3
    Format                         : AC-3
    Format/Info                    : Audio Coding 3
    Format settings, Endianness    : Big
    Codec ID                       : A_AC3
    Duration                       : 2 h 1 min
    Bit rate mode                  : Constant
    Bit rate                       : 384 kb/s
    Channel(s)                     : 2 channels
    Channel positions              : Front: L R
    Sampling rate                  : 48.0 kHz
    Frame rate                     : 31.250 FPS (1536 SPF)
    Bit depth                      : 16 bits
    Compression mode               : Lossy
    Delay relative to video        : -43 ms
    Stream size                    : 334 MiB (12%)
    Language                       : Thai
    Service kind                   : Complete Main
    Default                        : Yes
    Forced                         : Yes
    
    Text #1
    ID                             : 4
    Format                         : UTF-8
    Codec ID                       : S_TEXT/UTF8
    Codec ID/Info                  : UTF-8 Plain Text
    Duration                       : 1 h 55 min
    Bit rate                       : 81 b/s
    Count of elements              : 1880
    Stream size                    : 68.8 KiB (0%)
    Language                       : English
    Default                        : No
    Forced                         : No
    
    Text #2
    ID                             : 5
    Format                         : UTF-8
    Codec ID                       : S_TEXT/UTF8
    Codec ID/Info                  : UTF-8 Plain Text
    Duration                       : 2 h 1 min
    Bit rate                       : 198 b/s
    Count of elements              : 1925
    Stream size                    : 176 KiB (0%)
    Language                       : Thai
    Default                        : No
    Forced                         : No
    
    Text #3
    ID                             : 6
    Format                         : PGS
    Muxing mode                    : zlib
    Codec ID                       : S_HDMV/PGS
    Codec ID/Info                  : Picture based subtitle format used on BDs/HD-DVDs
    Duration                       : 2 h 1 min
    Bit rate                       : 57.5 kb/s
    Count of elements              : 3850
    Stream size                    : 49.9 MiB (2%)
    Language                       : Thai
    Default                        : Yes
    Forced                         : Yes





    Download: cornfile
    http://cornfile.com/6jobguqld0p7
    Download: mekafile
    http://www.mekafile.com/dl.php?f=A733d8c74R9s

  2. The Following User Says Thank You to Duckload.us For This Useful Post:

    Tatum03 (03-30-2020)

  3. #2
    Senior Member
    สมัครเมื่อ
    Jun 2014
    โพสต์
    3,881
    Thanks
    0
    Thanked 0 Times in 0 Posts
    ขอบคุณครับ

  4. #3
    Senior Member
    สมัครเมื่อ
    Jul 2013
    โพสต์
    584
    Thanks
    0
    Thanked 0 Times in 0 Posts
    ขอบคุณครับผม

  5. #4
    Senior Member
    สมัครเมื่อ
    Oct 2013
    ที่อยู่
    Thailand
    โพสต์
    1,335
    Thanks
    1,206
    Thanked 0 Times in 0 Posts
    ขอบคุณมาก

  6. #5
    Senior Member
    สมัครเมื่อ
    Jul 2012
    โพสต์
    6,734
    Thanks
    0
    Thanked 0 Times in 0 Posts
    ขอบคุณมากจ้า

+ ตอบกลับกระทู้

ข้อมูลกระทู้

Users Browsing this Thread

ในขณะนี้มี 1 ท่านดูกระทู้อยู่. (0 สมาชิกและ 1 ผู้เยี่ยมชม)

     

กฎการโพสต์ข้อความ

  • ท่าน ไม่สามารถ ตั้งกระทู้ใหม่ได้
  • ท่าน ไม่สามารถ ตอบกระทู้ได้
  • ท่าน ไม่สามารถ แนบไฟล์ได้
  • ท่าน ไม่สามารถ แก้ไขข้อความโพสต์ได้
  • BB code สถานะ เปิด
  • Smilies สถานะ เปิด
  • [IMG] สถานะ เปิด
  • HTML สถานะ ปิด