+ ตอบกลับกระทู้
สรุปผลการค้นหา 1 ถึง 3 จากทั้งหมด 3
  1. #1
    Administrators รูปส่วนตัว Duckload.us
    สมัครเมื่อ
    Dec 2010
    โพสต์
    114,448
    Thanks
    7
    Thanked 120,747 Times in 54,304 Posts

    Question [ฝรั่ง]-The Grudge (2020) บ้านผีดุ - [Soundtrack บรรยายไทย+อังกฤษ] 1080p.bluray.x264




    The Grudge ของฮอลลีวูดเป็นหนังสยองขวัญชื่อดังที่รีเมคจากเวอร์ ชั่นญี่ปุ่นสุดหลอด Ju-On: The Grudge ในปี 2002 The Grudge 2020 เวอร์ชั่นใหม่นี้จะเป็นหนังสยองขวัญเรท R และจะเป็นเรื่องราวของบ้านต้องสาปที่มาพร้อมกับผีจอม อาฆาต (จู-ออน) ที่พร้อมจะตามหลอนใครก็ตามที่เหยียบย่างเข้าไปในบ้าน ด้วยความตายอันโหดร้ายทารุณ จากการรายงานได้บอกว่าในเวอร์ชั่นนี้จะเป็นเรื่องราว ที่เกิดขึ้นในช่วงเวลาเดียวกันกับเหตุการณ์ที่เกิดขึ ้นในภาคดั้งเดิม


    Duration : 1 h 33 min
    Overall bit rate : 10.0 Mb/s
    Encoded date : UTC 2020-03-29 04:18:28
    Writing application : mkvmerge v44.0.0 ('Domino') 64-bit
    Writing library : libebml v1.3.10 + libmatroska v1.5.2
    Cover : Yes
    Attachments : cover

    Video
    ID : 1
    Format : AVC
    Format/Info : Advanced Video Codec
    Format profile : [email protected]
    Format settings : CABAC / 5 Ref Frames
    Format settings, CABAC : Yes
    Format settings, Reference : 5 frames
    Codec ID : V_MPEG4/ISO/AVC
    Duration : 1 h 33 min
    Bit rate : 8 496 kb/s
    Width : 1 920 pixels
    Height : 800 pixels
    Display aspect ratio : 2.40:1
    Frame rate mode : Constant
    Frame rate : 23.976 (24000/1001) FPS
    Color space : YUV
    Chroma subsampling : 4:2:0
    Bit depth : 8 bits
    Scan type : Progressive
    Bits/(Pixel*Frame) : 0.231
    Stream size : 5.56 GiB (85%)
    Writing library : x264 core 159 r2991 1771b55
    Encoding settings : cabac=1 / ref=5 / deblock=1:-3:-3 / analyse=0x3:0x133 / me=umh / subme=7 / psy=1 / psy_rd=1.00:0.00 / mixed_ref=1 / me_range=16 / chroma_me=1 / trellis=2 / 8x8dct=1 / cqm=0 / deadzone=21,11 / fast_pskip=1 / chroma_qp_offset=-2 / threads=16 / lookahead_threads=2 / sliced_threads=0 / nr=0 / decimate=1 / interlaced=0 / bluray_compat=0 / constrained_intra=0 / bframes=3 / b_pyramid=2 / b_adapt=2 / b_bias=0 / direct=3 / weightb=1 / open_gop=0 / weightp=2 / keyint=250 / keyint_min=23 / scenecut=40 / intra_refresh=0 / rc_lookahead=50 / rc=2pass / mbtree=1 / bitrate=8496 / ratetol=1.0 / qcomp=0.60 / qpmin=0 / qpmax=69 / qpstep=4 / cplxblur=20.0 / qblur=0.5 / ip_ratio=1.40 / aq=1:1.00
    Language : English
    Default : Yes
    Forced : No
    Color range : Limited
    Matrix coefficients : BT.709

    Audio
    ID : 2
    Format : DTS
    Format/Info : Digital Theater Systems
    Codec ID : A_DTS
    Duration : 1 h 33 min
    Bit rate mode : Constant
    Bit rate : 1 509 kb/s
    Channel(s) : 6 channels
    Channel layout : C L R Ls Rs LFE
    Sampling rate : 48.0 kHz
    Frame rate : 93.750 FPS (512 SPF)
    Bit depth : 24 bits
    Compression mode : Lossy
    Stream size : 1 012 MiB (15%)
    Language : English
    Default : Yes
    Forced : No

    Text #1
    ID : 3
    Format : PGS
    Muxing mode : zlib
    Codec ID : S_HDMV/PGS
    Codec ID/Info : Picture based subtitle format used on BDs/HD-DVDs
    Duration : 1 h 32 min
    Bit rate : 18.2 kb/s
    Count of elements : 1764
    Stream size : 12.1 MiB (0%)
    Language : English
    Default : No
    Forced : No

    Text #2
    ID : 4
    Format : PGS
    Muxing mode : zlib
    Codec ID : S_HDMV/PGS
    Codec ID/Info : Picture based subtitle format used on BDs/HD-DVDs
    Duration : 1 h 32 min
    Bit rate : 13.1 kb/s
    Count of elements : 1422
    Stream size : 8.72 MiB (0%)
    Language : Thai
    Default : Yes
    Forced : No






    3.61 GB
    http://cornfile.com/ceffr55bn2s8
    http://www.mekafile.com/dl.php?f=mR9628c76ukm

    6.56 GB
    http://cornfile.com/4y9fyh0xmweb
    http://www.mekafile.com/dl.php?f=JG1640c76ueI

  2. The Following 3 Users Say Thank You to Duckload.us For This Useful Post:

    amorn wichian (03-30-2020), noi54 (04-01-2020), Wesker_TOT (03-30-2020)

  3. #2
    Senior Member
    สมัครเมื่อ
    Dec 2013
    โพสต์
    2,087
    Thanks
    4,007
    Thanked 0 Times in 0 Posts
    ขอบคุณครับ...

  4. #3
    Senior Member
    สมัครเมื่อ
    Jun 2014
    โพสต์
    3,799
    Thanks
    0
    Thanked 0 Times in 0 Posts
    ขอบคุณครับ

+ ตอบกลับกระทู้

ข้อมูลกระทู้

Users Browsing this Thread

ในขณะนี้มี 1 ท่านดูกระทู้อยู่. (0 สมาชิกและ 1 ผู้เยี่ยมชม)

     

กฎการโพสต์ข้อความ

  • ท่าน ไม่สามารถ ตั้งกระทู้ใหม่ได้
  • ท่าน ไม่สามารถ ตอบกระทู้ได้
  • ท่าน ไม่สามารถ แนบไฟล์ได้
  • ท่าน ไม่สามารถ แก้ไขข้อความโพสต์ได้
  • BB code สถานะ เปิด
  • Smilies สถานะ เปิด
  • [IMG] สถานะ เปิด
  • HTML สถานะ ปิด