+ ตอบกลับกระทู้
สรุปผลการค้นหา 1 ถึง 4 จากทั้งหมด 4
  1. #1
    Administrators รูปส่วนตัว Duckload.us
    สมัครเมื่อ
    Dec 2010
    โพสต์
    114,448
    Thanks
    7
    Thanked 120,747 Times in 54,304 Posts

    Question (ฝรั่ง.ใหม่.ไทยมาสเตอร์)-The Murder Of Nicole Brown Simpson (2020) แกะรอยฆาตกรรมนิโคล บราว ซิมป์สัน-[1080p.HDTV][Sound:Eng/Thai AC3 2.0:Master][HARD SUB:Thai]



    แรงบันดาลใจจากเหตุการณ์จริงของ Nicole Brown Simpson อดีตภรรยาของ OJ Simpson ในวันสุดท้ายก่อนที่เธอจะเสียชีวิตเมื่อวันที่ 12 มิถุนายน 2537 ตามมุมมองของเธอ

    Format : Matroska
    Format version : Version 4
    File size : 3.21 GiB
    Duration : 1 h 15 min
    Overall bit rate mode : Constant
    Overall bit rate : 6 079 kb/s
    Movie name : The Murder of Nicole Brown Simpson (2020) 1080P. _©GOLD CUP™

    Video
    ID : 1
    Format : AVC
    Format/Info : Advanced Video Codec
    Format profile : [email protected]
    Format settings : CABAC / 1 Ref Frames
    Format settings, CABAC : Yes
    Format settings, Reference frames : 1 frame
    Format settings, GOP : M=1, N=25
    Codec ID : V_MPEG4/ISO/AVC
    Duration : 1 h 15 min
    Bit rate mode : Constant
    Bit rate : 4 800 kb/s
    Width : 1 920 pixels
    Height : 950 pixels
    Display aspect ratio : 2.021
    Frame rate mode : Constant
    Frame rate : 29.970 (30000/1001) FPS
    Color space : YUV
    Chroma subsampling : 4:2:0
    Bit depth : 8 bits
    Scan type : Progressive
    Bits/(Pixel*Frame) : 0.088
    Stream size : 2.54 GiB (79%)
    Title : The Murder of Nicole Brown Simpson (2020) 1080P. _©GOLD CUP™
    Language : English
    Default : Yes
    Forced : No

    Audio #1
    ID : 2
    Format : AC-3
    Format/Info : Audio Coding 3
    Commercial name : Dolby Digital
    Codec ID : A_AC3
    Duration : 1 h 15 min
    Bit rate mode : Constant
    Bit rate : 640 kb/s
    Channel(s) : 2 channels
    Channel layout : L R
    Sampling rate : 44.1 kHz
    Frame rate : 28.711 FPS (1536 SPF)
    Compression mode : Lossy
    Stream size : 346 MiB (11%)
    Title : 2.0 AC3 TH 640K 355M_©GOLD CUP™
    Language : Thai
    Service kind : Complete Main
    Default : Yes
    Forced : No

    Audio #2
    ID : 3
    Format : AC-3
    Format/Info : Audio Coding 3
    Commercial name : Dolby Digital
    Codec ID : A_AC3
    Duration : 1 h 15 min
    Bit rate mode : Constant
    Bit rate : 640 kb/s
    Channel(s) : 2 channels
    Channel layout : L R
    Sampling rate : 44.1 kHz
    Frame rate : 28.711 FPS (1536 SPF)
    Compression mode : Lossy
    Stream size : 346 MiB (11%)
    Title : 2.0 AC3 EN 640K 355M_©GOLD CUP™
    Language : English
    Service kind : Complete Main
    Default : No
    Forced : No





    Download: cornfile
    http://cornfile.com/ikl0x1b13zin
    Download: mekafile
    http://www.mekafile.com/dl.php?f=hA408bc7awK8

  2. The Following 3 Users Say Thank You to Duckload.us For This Useful Post:

    Jodz14 (04-01-2020), noi54 (04-01-2020), Tatum03 (03-31-2020)

  3. #2
    Senior Member
    สมัครเมื่อ
    Jun 2014
    โพสต์
    3,799
    Thanks
    0
    Thanked 0 Times in 0 Posts
    ขอบคุณครับ

  4. #3
    Senior Member
    สมัครเมื่อ
    Oct 2013
    ที่อยู่
    Thailand
    โพสต์
    1,334
    Thanks
    1,205
    Thanked 0 Times in 0 Posts
    ขอบคุณมาก

  5. #4
    Senior Member
    สมัครเมื่อ
    Jul 2013
    โพสต์
    575
    Thanks
    0
    Thanked 0 Times in 0 Posts
    ขอบคุณครับผม

+ ตอบกลับกระทู้

ข้อมูลกระทู้

Users Browsing this Thread

ในขณะนี้มี 1 ท่านดูกระทู้อยู่. (0 สมาชิกและ 1 ผู้เยี่ยมชม)

     

กฎการโพสต์ข้อความ

  • ท่าน ไม่สามารถ ตั้งกระทู้ใหม่ได้
  • ท่าน ไม่สามารถ ตอบกระทู้ได้
  • ท่าน ไม่สามารถ แนบไฟล์ได้
  • ท่าน ไม่สามารถ แก้ไขข้อความโพสต์ได้
  • BB code สถานะ เปิด
  • Smilies สถานะ เปิด
  • [IMG] สถานะ เปิด
  • HTML สถานะ ปิด