+ ตอบกลับกระทู้
สรุปผลการค้นหา 1 ถึง 2 จากทั้งหมด 2
  1. #1
    Administrators รูปส่วนตัว Duckload.us
    สมัครเมื่อ
    Dec 2010
    โพสต์
    114,620
    Thanks
    7
    Thanked 120,975 Times in 54,382 Posts

    Question [ฝรั่ง]-Motherless Brooklyn (2019) สืบกระตุก โค่นอิทธิพลมืด - [พากย์ไทย+อังกฤษ] [บรรยายไทย+อังกฤษ] BDRip.1080p.H264



    ลิโอเนล เอสส์ร็อก (เอ็ดเวิร์ด นอร์ตัน) นักสืบเอกชนผู้โดดเดี่ยวซึ่งมีโรคทูเร็ตต์ติดตัว ในขณะที่เขาต้องวัดดวงเพื่อไขปริศนาคดีฆาตกรรมอาจารย ์และเพื่อนเพียงคนเดียวของเขา แฟรงค์ มินนา (บรูซ วิลลิส) ด้วยเงื่อนงำเพียงเล็กน้อยและจิตใจที่หมกมุ่นแต่เป็น เครื่องจักรอันทรงพลังของเขา ลิโอเนลจะเปิดเผยความลับที่ถูกปิดไว้อย่างมิดชิดซึ่ง กุมชะตาของทั้งเมืองไว้และยังไม่รู้ว่าจะจบลงแบบใด ในปริศนาที่จะนำพาเขาจากคลับแจ๊สคลุ้งแอลกอฮอล์ในฮาร ์เลมไปยังสลัมอันแร้นแค้นของบรูคลิน และท้ายที่สุดไปยังคฤหาสน์สีทองอร่ามของผู้มีอิทธิพล แห่งนครนิวยอร์ค ลิโอเนลต้องต่อสู้กับหมู่โจร การคอรัปชั่น และชายที่อันตรายที่สุดในเมืองเพื่อเป็นเกียรติแก่เพ ื่อนของเขาและช่วยเหลือหญิงผู้ที่อาจเป็นความหวังแห่ งหนทางรอดของเขาเอง

    Duration : 2 h 24 min
    Overall bit rate : 13.6 Mb/s
    Encoded date : UTC 2020-03-30 14:20:38
    Writing application : mkvmerge v44.0.0 ('Domino') 64-bit
    Writing library : libebml v1.3.10 + libmatroska v1.5.2
    Cover : Yes
    Attachments : cover

    Video
    ID : 1
    Format : AVC
    Format/Info : Advanced Video Codec
    Format profile : [email protected]
    Format settings : CABAC / 4 Ref Frames
    Format settings, CABAC : Yes
    Format settings, Reference : 4 frames
    Codec ID : V_MPEG4/ISO/AVC
    Duration : 2 h 24 min
    Bit rate : 12.7 Mb/s
    Width : 1 920 pixels
    Height : 1 036 pixels
    Display aspect ratio : 1.85:1
    Frame rate mode : Constant
    Frame rate : 23.976 (24000/1001) FPS
    Color space : YUV
    Chroma subsampling : 4:2:0
    Bit depth : 8 bits
    Scan type : Progressive
    Bits/(Pixel*Frame) : 0.266
    Stream size : 12.8 GiB (93%)
    Writing library : x264 core 157 r2867+150 7e91e0e t_mod_Custom_2 [[email protected] X86_64]
    Encoding settings : cabac=1 / ref=4 / deblock=1:-3:-3 / analyse=0x3:0x133 / me=umh / subme=11 / psy=1 / fade_compensate=0.00 / psy_rd=0.90:0.10 / mixed_ref=1 / me_range=64 / chroma_me=1 / trellis=2 / 8x8dct=1 / cqm=0 / deadzone=21,11 / fast_pskip=0 / chroma_qp_offset=-4 / threads=32 / lookahead_threads=5 / sliced_threads=0 / nr=0 / decimate=1 / interlaced=0 / bluray_compat=0 / constrained_intra=0 / fgo=0 / bframes=8 / b_pyramid=2 / b_adapt=2 / b_bias=0 / direct=3 / weightb=1 / open_gop=0 / weightp=2 / keyint=250 / keyint_min=23 / scenecut=40 / intra_refresh=0 / rc_lookahead=60 / rc=crf / mbtree=0 / crf=18.0000 / qcomp=0.70 / qpmin=0:0:0 / qpmax=69:69:69 / qpstep=4 / vbv_maxrate=35000 / vbv_bufsize=35000 / crf_max=0.0 / nal_hrd=none / filler=0 / ip_ratio=1.40 / pb_ratio=1.30 / aq=3:1.00 / aq-sensitivity=10.00 / aq-factor=1.00:1.00:1.00 / aq2=0 / aq3=0
    Language : English
    Default : Yes
    Forced : No

    Audio #1
    ID : 2
    Format : AC-3
    Format/Info : Audio Coding 3
    Commercial name : Dolby Digital
    Codec ID : A_AC3
    Duration : 2 h 24 min
    Bit rate mode : Constant
    Bit rate : 640 kb/s
    Channel(s) : 6 channels
    Channel layout : L R C LFE Ls Rs
    Sampling rate : 48.0 kHz
    Frame rate : 31.250 FPS (1536 SPF)
    Compression mode : Lossy
    Stream size : 661 MiB (5%)
    Language : English
    Service kind : Complete Main
    Default : No
    Forced : No

    Audio #2
    ID : 3
    Format : AC-3
    Format/Info : Audio Coding 3
    Commercial name : Dolby Digital
    Codec ID : A_AC3
    Duration : 2 h 24 min
    Bit rate mode : Constant
    Bit rate : 256 kb/s
    Channel(s) : 2 channels
    Channel layout : L R
    Sampling rate : 44.1 kHz
    Frame rate : 28.711 FPS (1536 SPF)
    Compression mode : Lossy
    Delay relative to video : 1 s 700 ms
    Stream size : 264 MiB (2%)
    Language : Thai
    Service kind : Complete Main
    Default : Yes
    Forced : No

    Text #1
    ID : 4
    Format : VobSub
    Muxing mode : zlib
    Codec ID : S_VOBSUB
    Codec ID/Info : Picture based subtitle format used on DVDs
    Duration : 2 h 16 min
    Bit rate : 16.3 kb/s
    Count of elements : 2463
    Stream size : 15.9 MiB (0%)
    Language : English
    Default : No
    Forced : No

    Text #2
    ID : 5
    Format : PGS
    Muxing mode : zlib
    Codec ID : S_HDMV/PGS
    Codec ID/Info : Picture based subtitle format used on BDs/HD-DVDs
    Duration : 2 h 16 min
    Bit rate : 67.2 kb/s
    Count of elements : 4926
    Stream size : 65.4 MiB (0%)
    Language : English
    Default : Yes
    Forced : No

    Text #3
    ID : 6
    Format : VobSub
    Muxing mode : zlib
    Codec ID : S_VOBSUB
    Codec ID/Info : Picture based subtitle format used on DVDs
    Duration : 2 h 23 min
    Bit rate : 12.8 kb/s
    Count of elements : 2358
    Stream size : 13.2 MiB (0%)
    Language : Thai
    Default : No
    Forced : No

    Text #4
    ID : 7
    Format : PGS
    Muxing mode : zlib
    Codec ID : S_HDMV/PGS
    Codec ID/Info : Picture based subtitle format used on BDs/HD-DVDs
    Duration : 2 h 23 min
    Bit rate : 51.8 kb/s
    Count of elements : 4716
    Stream size : 53.2 MiB (0%)
    Language : Thai
    Default : No
    Forced : No



    Download: cornfile
    http://cornfile.com/vxc1tl3n9a28
    Download: mekafile
    http://www.mekafile.com/dl.php?f=Cbc630c7aED0

  2. #2
    Senior Member
    สมัครเมื่อ
    Jun 2014
    โพสต์
    3,903
    Thanks
    0
    Thanked 0 Times in 0 Posts
    ขอบคุณครับ

+ ตอบกลับกระทู้

ข้อมูลกระทู้

Users Browsing this Thread

ในขณะนี้มี 1 ท่านดูกระทู้อยู่. (0 สมาชิกและ 1 ผู้เยี่ยมชม)

     

กฎการโพสต์ข้อความ

  • ท่าน ไม่สามารถ ตั้งกระทู้ใหม่ได้
  • ท่าน ไม่สามารถ ตอบกระทู้ได้
  • ท่าน ไม่สามารถ แนบไฟล์ได้
  • ท่าน ไม่สามารถ แก้ไขข้อความโพสต์ได้
  • BB code สถานะ เปิด
  • Smilies สถานะ เปิด
  • [IMG] สถานะ เปิด
  • HTML สถานะ ปิด