+ ตอบกลับกระทู้
สรุปผลการค้นหา 1 ถึง 3 จากทั้งหมด 3
  1. #1
    Administrators รูปส่วนตัว Duckload.us
    สมัครเมื่อ
    Dec 2010
    โพสต์
    114,610
    Thanks
    7
    Thanked 120,942 Times in 54,365 Posts

    Question [ฝรั่ง]-Downhill (2020) - [Soundtrack บรรยายไทย+อังกฤษ] 1080p.WEB-DL.DD5.1.H264




    Downhill เล่าถึงคู่สามีภรรยา พีท และ บิลลี่ พาครอบครัวมาเที่ยวสกีรีสอร์ทบนเทือกเขาแอลป์ในยุโรป แต่แล้วทริปสุขสันต์กลับกลายเป็นหายนะ เมื่อมีอุบัติเหตุหิมะถล่มที่รีสอร์ทของพวกเขา แม้ไม่มีใครได้รับบาดเจ็บอะไร แต่ด้วยความตกใจสุดขีด พีทกลับคว้ามือถือแล้ววิ่งหนีจากครอบครัวไป ทิ้งบิลลี่และลูกชายทั้ง 2 ให้เผชิญกับหิมะถล่มโดยลำพัง และเหตุการณ์นี้ได้สร้างบาดแผลในจิตใจระหว่างบิลลี่แ ละพีทที่ยากเกินเยียวยา


    Duration : 1 h 26 min
    Overall bit rate : 4 988 kb/s
    Encoded date : UTC 2020-04-02 14:14:02
    Writing application : mkvmerge v44.0.0 ('Domino') 64-bit
    Writing library : libebml v1.3.10 + libmatroska v1.5.2
    Cover : Yes
    Attachments : cover

    Video
    ID : 1
    Format : AVC
    Format/Info : Advanced Video Codec
    Format profile : [email protected]
    Format settings : CABAC / 5 Ref Frames
    Format settings, CABAC : Yes
    Format settings, Reference : 5 frames
    Codec ID : V_MPEG4/ISO/AVC
    Duration : 1 h 26 min
    Bit rate : 4 556 kb/s
    Width : 1 920 pixels
    Height : 802 pixels
    Display aspect ratio : 2.40:1
    Frame rate mode : Constant
    Frame rate : 23.976 FPS
    Color space : YUV
    Chroma subsampling : 4:2:0
    Bit depth : 8 bits
    Scan type : Progressive
    Bits/(Pixel*Frame) : 0.123
    Stream size : 2.75 GiB (91%)
    Language : English
    Default : Yes
    Forced : No
    Color range : Limited
    Color primaries : BT.709
    Transfer characteristics : BT.709
    Matrix coefficients : BT.709

    Audio
    ID : 2
    Format : AC-3
    Format/Info : Audio Coding 3
    Commercial name : Dolby Digital
    Codec ID : A_AC3
    Duration : 1 h 26 min
    Bit rate mode : Constant
    Bit rate : 384 kb/s
    Channel(s) : 6 channels
    Channel layout : L R C LFE Ls Rs
    Sampling rate : 48.0 kHz
    Frame rate : 31.250 FPS (1536 SPF)
    Compression mode : Lossy
    Delay relative to video : -43 ms
    Stream size : 237 MiB (8%)
    Language : English
    Service kind : Complete Main
    Default : Yes
    Forced : No

    Text #1
    ID : 3
    Format : VobSub
    Muxing mode : zlib
    Codec ID : S_VOBSUB
    Codec ID/Info : Picture based subtitle format used on DVDs
    Duration : 1 h 19 min
    Bit rate : 14.4 kb/s
    Count of elements : 1623
    Stream size : 8.14 MiB (0%)
    Language : English
    Default : No
    Forced : No

    Text #2
    ID : 4
    Format : UTF-8
    Codec ID : S_TEXT/UTF8
    Codec ID/Info : UTF-8 Plain Text
    Duration : 1 h 19 min
    Bit rate : 73 b/s
    Count of elements : 1623
    Stream size : 42.6 KiB (0%)
    Language : English
    Default : No
    Forced : No

    Text #3
    ID : 5
    Format : PGS
    Muxing mode : zlib
    Codec ID : S_HDMV/PGS
    Codec ID/Info : Picture based subtitle format used on BDs/HD-DVDs
    Duration : 1 h 19 min
    Bit rate : 39.8 kb/s
    Count of elements : 3246
    Stream size : 22.6 MiB (1%)
    Language : English
    Default : No
    Forced : No

    Text #4
    ID : 6
    Format : VobSub
    Muxing mode : zlib
    Codec ID : S_VOBSUB
    Codec ID/Info : Picture based subtitle format used on DVDs
    Duration : 1 h 24 min
    Bit rate : 10.2 kb/s
    Count of elements : 1434
    Stream size : 6.20 MiB (0%)
    Language : Thai
    Default : No
    Forced : No

    Text #5
    ID : 7
    Format : UTF-8
    Codec ID : S_TEXT/UTF8
    Codec ID/Info : UTF-8 Plain Text
    Duration : 1 h 24 min
    Bit rate : 146 b/s
    Count of elements : 1434
    Stream size : 90.9 KiB (0%)
    Language : Thai
    Default : No
    Forced : No

    Text #6
    ID : 8
    Format : PGS
    Muxing mode : zlib
    Codec ID : S_HDMV/PGS
    Codec ID/Info : Picture based subtitle format used on BDs/HD-DVDs
    Duration : 1 h 24 min
    Bit rate : 29.8 kb/s
    Count of elements : 2868
    Stream size : 18.1 MiB (1%)
    Language : Thai
    Default : Yes
    Forced : No






    Download: cornfile
    http://cornfile.com/iq2uucnjph12
    Download: mekafile
    http://www.mekafile.com/dl.php?f=Fh7621c7hZ8K

  2. The Following 3 Users Say Thank You to Duckload.us For This Useful Post:

    amorn wichian (04-04-2020), noi54 (04-04-2020), Tatum03 (04-08-2020)

  3. #2
    Senior Member
    สมัครเมื่อ
    Jun 2014
    โพสต์
    3,903
    Thanks
    0
    Thanked 0 Times in 0 Posts
    ขอบคุณครับ

  4. #3
    Senior Member
    สมัครเมื่อ
    Oct 2013
    ที่อยู่
    Thailand
    โพสต์
    1,335
    Thanks
    1,206
    Thanked 0 Times in 0 Posts
    ขอบคุณมาก

+ ตอบกลับกระทู้

ข้อมูลกระทู้

Users Browsing this Thread

ในขณะนี้มี 1 ท่านดูกระทู้อยู่. (0 สมาชิกและ 1 ผู้เยี่ยมชม)

     

กฎการโพสต์ข้อความ

  • ท่าน ไม่สามารถ ตั้งกระทู้ใหม่ได้
  • ท่าน ไม่สามารถ ตอบกระทู้ได้
  • ท่าน ไม่สามารถ แนบไฟล์ได้
  • ท่าน ไม่สามารถ แก้ไขข้อความโพสต์ได้
  • BB code สถานะ เปิด
  • Smilies สถานะ เปิด
  • [IMG] สถานะ เปิด
  • HTML สถานะ ปิด