+ ตอบกลับกระทู้
สรุปผลการค้นหา 1 ถึง 2 จากทั้งหมด 2
  1. #1
    Administrators รูปส่วนตัว Duckload.us
    สมัครเมื่อ
    Dec 2010
    โพสต์
    114,628
    Thanks
    7
    Thanked 120,980 Times in 54,385 Posts

    Question [ใหม่][ไทยมาสเตอร์] spider in the web 2019 สไปเดอร์ อิน เดอะเว็บ 1080p WEB-DL H264 [พากษ์ไทย++อังกฤษ] [SUB:อังกฤษ]



    An aging spy is on one last mission to redeem his life and career before the clock runs out
    but when a mysterious woman appears and the lines of trust with his superiors begin to blur,
    Adereth realizes the hunter may become the hunted in a world of mirrors and deceit....!!!

    Spider in the Web เป็นภาพยนตร์สยองขวัญสายลับปี 2019 กำกับและร่วมอำนวยการสร้างโดย Eran Riklis ผลิตโดย Sabine Brian, Jacqueline de Goeij, Leon Edrey และ Michael Sharfstein พร้อมด้วย screnplay ที่เขียนโดย Gidon Maron และ Emmanuel Naccahe Starring Ben Kingsley, Monica Bellucci, Itzik Cohen และ Itay Tiran Spider in the Web

    Format : Matroska
    Format version : Version 4
    File size : 4.00 GiB
    Duration : 1 h 53 min
    Overall bit rate : 5 035 kb/s
    Movie name : Spider in the Web.2019 1080p WEB-DL H264-SlishMay
    Encoded date : UTC 2020-04-03 15:26:28
    Writing application : mkvmerge v44.0.0 ('Domino') 64-bit
    Writing library : libebml v1.3.10 + libmatroska v1.5.2

    Video
    ID : 1
    Format : AVC
    Format/Info : Advanced Video Codec
    Format profile : [email protected]
    Format settings : CABAC / 5 Ref Frames
    Format settings, CABAC : Yes
    Format settings, Reference frames : 5 frames
    Codec ID : V_MPEG4/ISO/AVC
    Duration : 1 h 53 min
    Bit rate : 4 526 kb/s
    Width : 1 904 pixels
    Height : 794 pixels
    Display aspect ratio : 2.40:1
    Frame rate mode : Constant
    Frame rate : 24.000 FPS
    Color space : YUV
    Chroma subsampling : 4:2:0
    Bit depth : 8 bits
    Scan type : Progressive
    Bits/(Pixel*Frame) : 0.125
    Stream size : 3.59 GiB (90%)
    Title : Spider in the Web.2019 1080p WEB-DL H264-SlishMay
    Language : English
    Default : No
    Forced : No
    Color range : Limited
    Color primaries : BT.709
    Transfer characteristics : BT.709
    Matrix coefficients : BT.709

    Audio #1
    ID : 2
    Format : AAC LC
    Format/Info : Advanced Audio Codec Low Complexity
    Codec ID : A_AAC-2
    Duration : 1 h 53 min
    Bit rate : 128 kb/s
    Channel(s) : 2 channels
    Channel layout : L R
    Sampling rate : 44.1 kHz
    Frame rate : 43.066 FPS (1024 SPF)
    Compression mode : Lossy
    Delay relative to video : -26 ms
    Stream size : 104 MiB (3%)
    Language : Thai
    Default : Yes
    Forced : No

    Audio #2
    ID : 3
    Format : AC-3
    Format/Info : Audio Coding 3
    Commercial name : Dolby Digital
    Codec ID : A_AC3
    Duration : 1 h 53 min
    Bit rate mode : Constant
    Bit rate : 384 kb/s
    Channel(s) : 6 channels
    Channel layout : L R C LFE Ls Rs
    Sampling rate : 48.0 kHz
    Frame rate : 31.250 FPS (1536 SPF)
    Bit depth : 16 bits
    Compression mode : Lossy
    Delay relative to video : -42 ms
    Stream size : 312 MiB (8%)
    Language : English
    Service kind : Complete Main
    Default : No
    Forced : No

    Text
    ID : 4
    Format : UTF-8
    Codec ID : S_TEXT/UTF8
    Codec ID/Info : UTF-8 Plain Text
    Duration : 1 h 44 min
    Bit rate : 53 b/s
    Count of elements : 1498
    Stream size : 40.8 KiB (0%)
    Language : English
    Default : Yes
    Forced : No

    Menu
    00:00:00.000 : en:1
    00:07:37.000 : en:2
    00:14:38.000 : en:3
    00:21:51.000 : en:4
    00:29:29.000 : en:5
    00:36:19.000 : en:6
    00:43:31.000 : en:7
    00:50:59.000 : en:8
    00:58:03.000 : en:9
    01:05:13.000 : en:10
    01:12:32.000 : en:11
    01:19:40.000 : en:12
    01:27:01.000 : en:13
    01:34:11.000 : en:14
    01:41:12.000 : en:15
    01:48:36.000 : en:16






    Download: cornfile
    http://cornfile.com/460rs8irjom9
    Download: mekafile
    http://www.mekafile.com/dl.php?f=Q4f052c7klrX

  2. The Following User Says Thank You to Duckload.us For This Useful Post:

    noi54 (04-04-2020)

  3. #2
    Senior Member
    สมัครเมื่อ
    Jun 2014
    โพสต์
    3,903
    Thanks
    0
    Thanked 0 Times in 0 Posts
    ขอบคุณครับ

+ ตอบกลับกระทู้

ข้อมูลกระทู้

Users Browsing this Thread

ในขณะนี้มี 1 ท่านดูกระทู้อยู่. (0 สมาชิกและ 1 ผู้เยี่ยมชม)

     

กฎการโพสต์ข้อความ

  • ท่าน ไม่สามารถ ตั้งกระทู้ใหม่ได้
  • ท่าน ไม่สามารถ ตอบกระทู้ได้
  • ท่าน ไม่สามารถ แนบไฟล์ได้
  • ท่าน ไม่สามารถ แก้ไขข้อความโพสต์ได้
  • BB code สถานะ เปิด
  • Smilies สถานะ เปิด
  • [IMG] สถานะ เปิด
  • HTML สถานะ ปิด