+ ตอบกลับกระทู้
สรุปผลการค้นหา 1 ถึง 2 จากทั้งหมด 2
  1. #1
    Administrators รูปส่วนตัว Duckload.us
    สมัครเมื่อ
    Dec 2010
    โพสต์
    114,480
    Thanks
    7
    Thanked 120,816 Times in 54,321 Posts

    Question [ฝรั่ง]-Out of Sight (1998) ปล้นรัก หักด่านเอฟบีไอ-Blu-ray.AC-3.1080p. [Master]-[พากย์ไทย]



    Code:
    General
    Unique ID                                : 237576835351599961260253217171246817041 (0xB2BBA25651F24188B506ECD03E621F11)
    Complete name                            : E:MovieOut.of.Sight.1998.1080p.BluRay.x264.DTS.evil.1990.mkv
    Format                                   : Matroska
    Format version                           : Version 4
    File size                                : 12.9 GiB
    Duration                                 : 2 h 2 min
    Overall bit rate mode                    : Variable
    Overall bit rate                         : 15.0 Mb/s
    Movie name                               : Out.of.Sight.1998.1080p.BluRay.x264.DTS-FGT
    Encoded date                             : UTC 2019-08-24 22:48:48
    Writing application                      : mkvmerge v32.0.0 ('Astral Progressions') 64-bit
    Writing library                          : libebml v1.3.7 + libmatroska v1.5.0
    
    Video
    ID                                       : 1
    Format                                   : AVC
    Format/Info                              : Advanced Video Codec
    Format profile                           : [email protected]
    Format settings                          : CABAC / 4 Ref Frames
    Format settings, CABAC                   : Yes
    Format settings, Reference frames        : 4 frames
    Codec ID                                 : V_MPEG4/ISO/AVC
    Duration                                 : 2 h 2 min
    Bit rate mode                            : Variable
    Bit rate                                 : 12.5 Mb/s
    Maximum bit rate                         : 50.0 Mb/s
    Width                                    : 1 920 pixels
    Height                                   : 1 040 pixels
    Display aspect ratio                     : 1.85:1
    Frame rate mode                          : Constant
    Frame rate                               : 23.976 (24000/1001) FPS
    Color space                              : YUV
    Chroma subsampling                       : 4:2:0
    Bit depth                                : 8 bits
    Scan type                                : Progressive
    Bits/(Pixel*Frame)                       : 0.261
    Stream size                              : 10.7 GiB (83%)
    Writing library                          : x264 core 114 r1913 5fd3dce
    Encoding settings                        : cabac=1 / ref=4 / deblock=1:-3:-3 / analyse=0x3:0x133 / me=umh / subme=10 / psy=1 / psy_rd=1.15:0.15 / mixed_ref=1 / me_range=24 / chroma_me=1 / trellis=2 / 8x8dct=1 / cqm=0 / deadzone=21,11 / fast_pskip=1 / chroma_qp_offset=-3 / threads=12 / sliced_threads=0 / nr=0 / decimate=1 / interlaced=0 / constrained_intra=0 / bframes=7 / b_pyramid=2 / b_adapt=2 / b_bias=0 / direct=3 / weightb=1 / open_gop=0 / weightp=2 / keyint=24 / keyint_min=1 / scenecut=40 / intra_refresh=0 / rc_lookahead=29 / rc=2pass / mbtree=1 / bitrate=12499 / ratetol=1.0 / qcomp=0.60 / qpmin=10 / qpmax=51 / qpstep=4 / cplxblur=20.0 / qblur=0.5 / vbv_maxrate=50000 / vbv_bufsize=62500 / nal_hrd=vbr / ip_ratio=1.40 / aq=1:0.80
    Language                                 : English
    Default                                  : Yes
    Forced                                   : No
    
    Audio #1
    ID                                       : 2
    Format                                   : DTS
    Format/Info                              : Digital Theater Systems
    Codec ID                                 : A_DTS
    Duration                                 : 2 h 2 min
    Bit rate mode                            : Constant
    Bit rate                                 : 1 509 kb/s
    Channel(s)                               : 6 channels
    Channel layout                           : C L R Ls Rs LFE
    Sampling rate                            : 48.0 kHz
    Frame rate                               : 93.750 FPS (512 SPF)
    Bit depth                                : 24 bits
    Compression mode                         : Lossy
    Stream size                              : 1.29 GiB (10%)
    Language                                 : English
    Default                                  : Yes
    Forced                                   : No
    
    Audio #2
    ID                                       : 3
    Format                                   : AC-3
    Format/Info                              : Audio Coding 3
    Commercial name                          : Dolby Digital
    Codec ID                                 : A_AC3
    Duration                                 : 2 h 2 min
    Bit rate mode                            : Constant
    Bit rate                                 : 192 kb/s
    Channel(s)                               : 2 channels
    Channel layout                           : L R
    Sampling rate                            : 48.0 kHz
    Frame rate                               : 31.250 FPS (1536 SPF)
    Compression mode                         : Lossy
    Stream size                              : 169 MiB (1%)
    Title                                    : Commentary
    Language                                 : English
    Service kind                             : Complete Main
    Default                                  : No
    Forced                                   : No
    
    Audio #3
    ID                                       : 5
    Format                                   : AC-3
    Format/Info                              : Audio Coding 3
    Commercial name                          : Dolby Digital
    Codec ID                                 : A_AC3
    Duration                                 : 2 h 2 min
    Bit rate mode                            : Constant
    Bit rate                                 : 640 kb/s
    Channel(s)                               : 6 channels
    Channel layout                           : L R C LFE Ls Rs
    Sampling rate                            : 48.0 kHz
    Frame rate                               : 31.250 FPS (1536 SPF)
    Compression mode                         : Lossy
    Stream size                              : 562 MiB (4%)
    Title                                    : 5.1 by phum51
    Language                                 : English
    Service kind                             : Complete Main
    Default                                  : No
    Forced                                   : No
    
    Audio #4
    ID                                       : 6
    Format                                   : AC-3
    Format/Info                              : Audio Coding 3
    Commercial name                          : Dolby Digital
    Codec ID                                 : A_AC3
    Duration                                 : 2 h 2 min
    Bit rate mode                            : Constant
    Bit rate                                 : 192 kb/s
    Channel(s)                               : 2 channels
    Channel layout                           : L R
    Sampling rate                            : 48.0 kHz
    Frame rate                               : 31.250 FPS (1536 SPF)
    Compression mode                         : Lossy
    Stream size                              : 169 MiB (1%)
    Title                                    : by phum51
    Language                                 : Thai
    Service kind                             : Complete Main
    Default                                  : No
    Forced                                   : No
    
    Text #1
    ID                                       : 4
    Format                                   : UTF-8
    Codec ID                                 : S_TEXT/UTF8
    Codec ID/Info                            : UTF-8 Plain Text
    Duration                                 : 1 h 54 min
    Bit rate                                 : 66 b/s
    Count of elements                        : 1766
    Stream size                              : 56.0 KiB (0%)
    Language                                 : English
    Default                                  : Yes
    Forced                                   : No
    
    Text #2
    ID                                       : 7
    Format                                   : VobSub
    Muxing mode                              : zlib
    Codec ID                                 : S_VOBSUB
    Codec ID/Info                            : Picture based subtitle format used on DVDs
    Duration                                 : 1 h 54 min
    Bit rate                                 : 3 773 b/s
    Count of elements                        : 1488
    Stream size                              : 3.10 MiB (0%)
    Title                                    : by phum51
    Language                                 : Thai
    Default                                  : No
    Forced                                   : No
    
    Menu
    00:00:00.000                             : en:00:00:00.000
    00:01:22.124                             : en:00:01:22.124
    00:04:50.790                             : en:00:04:50.790
    00:06:50.368                             : en:00:06:50.368
    00:07:53.598                             : en:00:07:53.598
    00:09:37.160                             : en:00:09:37.160
    00:10:16.032                             : en:00:10:16.032
    00:12:13.232                             : en:00:12:13.232
    00:15:51.450                             : en:00:15:51.450
    00:21:04.847                             : en:00:21:04.847
    00:25:51.592                             : en:00:25:51.592
    00:27:16.510                             : en:00:27:16.510
    00:29:30.686                             : en:00:29:30.686
    00:30:05.178                             : en:00:30:05.178
    00:32:27.779                             : en:00:32:27.779
    00:36:20.637                             : en:00:36:20.637
    00:40:06.988                             : en:00:40:06.988
    00:40:55.328                             : en:00:40:55.328
    00:45:42.907                             : en:00:45:42.907
    00:46:40.840                             : en:00:46:40.840
    00:48:16.936                             : en:00:48:16.936
    00:52:26.268                             : en:00:52:26.268
    00:56:19.376                             : en:00:56:19.376
    00:56:56.288                             : en:00:56:56.288
    00:58:25.711                             : en:00:58:25.711
    01:01:03.660                             : en:01:01:03.660
    01:01:42.490                             : en:01:01:42.490
    01:04:33.495                             : en:01:04:33.495
    01:05:44.357                             : en:01:05:44.357
    01:07:01.601                             : en:01:07:01.601
    01:08:10.586                             : en:01:08:10.586
    01:11:30.661                             : en:01:11:30.661
    01:12:45.653                             : en:01:12:45.653
    01:16:14.320                             : en:01:16:14.320
    01:19:02.363                             : en:01:19:02.363
    01:25:20.741                             : en:01:25:20.741
    01:28:06.531                             : en:01:28:06.531
    01:29:34.452                             : en:01:29:34.452
    01:32:36.885                             : en:01:32:36.885
    01:34:23.408                             : en:01:34:23.408
    01:37:03.526                             : en:01:37:03.526
    01:38:35.827                             : en:01:38:35.827
    01:39:47.899                             : en:01:39:47.899
    01:42:06.120                             : en:01:42:06.120
    01:44:10.035                             : en:01:44:10.035
    01:45:08.302                             : en:01:45:08.302
    01:46:28.716                             : en:01:46:28.716
    01:47:34.156                             : en:01:47:34.156
    01:48:27.918                             : en:01:48:27.918
    01:49:57.883                             : en:01:49:57.883
    01:53:46.278                             : en:01:53:46.278
    01:56:17.470                             : en:01:56:17.470
    http://cornfile.com/0061fco4i69r
    http://www.mekafile.com/dl.php?f=gR49f7c7rQUO

  2. #2
    Senior Member
    สมัครเมื่อ
    Jun 2014
    โพสต์
    3,811
    Thanks
    0
    Thanked 0 Times in 0 Posts
    ขอบคุณครับ

+ ตอบกลับกระทู้

ข้อมูลกระทู้

Users Browsing this Thread

ในขณะนี้มี 1 ท่านดูกระทู้อยู่. (0 สมาชิกและ 1 ผู้เยี่ยมชม)

     

กฎการโพสต์ข้อความ

  • ท่าน ไม่สามารถ ตั้งกระทู้ใหม่ได้
  • ท่าน ไม่สามารถ ตอบกระทู้ได้
  • ท่าน ไม่สามารถ แนบไฟล์ได้
  • ท่าน ไม่สามารถ แก้ไขข้อความโพสต์ได้
  • BB code สถานะ เปิด
  • Smilies สถานะ เปิด
  • [IMG] สถานะ เปิด
  • HTML สถานะ ปิด