+ ตอบกลับกระทู้
สรุปผลการค้นหา 1 ถึง 2 จากทั้งหมด 2
  1. #1
    Administrators รูปส่วนตัว Duckload.us
    สมัครเมื่อ
    Dec 2010
    โพสต์
    114,487
    Thanks
    7
    Thanked 120,816 Times in 54,321 Posts

    Question [ฝรั่ง]-In Bruges (2008) คู่นักฆ่าตะลุยมหานคร ]ลุ้นระทึก ดารม่าทิลเลอร์-Encode.AC-3.2160p. [Modified]-[พากย์ไทย]



    In Bruges (2008) คู่นักฆ่าตะลุยมหานคร -
    In Bruges คู่นักฆ่าตะลุยมหานคร 2008 |
    เรย์และเคนชายสองคนกำลังอยู่ในเมืองบรูจส์ประเทศเบลเ ยี่ยมรอภารกิจต่อไป ในขณะที่พวกเขาอยู่ที่

    นั่นพวกเขามีเวลาที่จะคิดและหารือเกี่ยวกับหน้าที่ที ่ได้รับก่อนหน้านี้ เมื่อภารกิจถูกเปิดเผยต่อเคนไม่ใช่

    สิ่งที่เขาคาดหวังไว้
    Ray and Ken, two hit men, are in Bruges, Belgium, waiting for their next mission. While

    they are there they have time to think and discuss their previous assignment. When the

    mission is revealed to Ken, it is not what he expected.

    https://www.imdb.com/title/tt0780536/

    Format : Matroska
    Format version : Version 2
    File size : 12.2 GiB
    Duration : 1h 46mn
    Overall bit rate : 16.3 Mbps
    Encoded date : UTC 2020-04-05 18:27:26
    Writing application : mkvmerge v3.4.0 ('Rapunzel') built on May 15 2010 09:38:20
    Writing library : libebml v0.8.0 + libmatroska v0.9.0

    Video
    ID : 1
    Format : VP8
    Codec ID : V_MS/VFW/FOURCC / VP80
    Duration : 1h 46mn
    Bit rate : 15.3 Mbps
    Width : 3 840 pixels
    Height : 1 628 pixels
    Display aspect ratio : 2.35:1
    Frame rate mode : Constant
    Frame rate : 23.976 fps
    Color space : YUV
    Chroma subsampling : 4:2:0
    Compression mode : Lossy
    Bits/(Pixel*Frame) : 0.102
    Stream size : 11.4 GiB (94%)
    Default : Yes
    Forced : No

    Audio
    ID : 2
    Format : AC-3
    Format/Info : Audio Coding 3
    Mode extension : CM (complete main)
    Format settings, Endianness : Big
    Codec ID : A_AC3
    Duration : 1h 46mn
    Bit rate mode : Constant
    Bit rate : 640 Kbps
    Channel(s) : 6 channels
    Channel positions : Front: L C R, Side: L R, LFE
    Sampling rate : 48.0 KHz
    Bit depth : 16 bits
    Compression mode : Lossy
    Stream size : 490 MiB (4%)
    Title : AC-3 5.1
    Language : Thai
    Default : No
    Forced : No

    http://cornfile.com/ebm60s70y0i2
    http://www.mekafile.com/dl.php?f=JJ3fddc7rIMA

  2. #2
    Senior Member
    สมัครเมื่อ
    Jun 2014
    โพสต์
    3,811
    Thanks
    0
    Thanked 0 Times in 0 Posts
    ขอบคุณครับ

+ ตอบกลับกระทู้

ข้อมูลกระทู้

Users Browsing this Thread

ในขณะนี้มี 1 ท่านดูกระทู้อยู่. (0 สมาชิกและ 1 ผู้เยี่ยมชม)

     

กฎการโพสต์ข้อความ

  • ท่าน ไม่สามารถ ตั้งกระทู้ใหม่ได้
  • ท่าน ไม่สามารถ ตอบกระทู้ได้
  • ท่าน ไม่สามารถ แนบไฟล์ได้
  • ท่าน ไม่สามารถ แก้ไขข้อความโพสต์ได้
  • BB code สถานะ เปิด
  • Smilies สถานะ เปิด
  • [IMG] สถานะ เปิด
  • HTML สถานะ ปิด