+ ตอบกลับกระทู้
สรุปผลการค้นหา 1 ถึง 2 จากทั้งหมด 2
  1. #1
    Administrators รูปส่วนตัว Duckload.us
    สมัครเมื่อ
    Dec 2010
    โพสต์
    114,576
    Thanks
    7
    Thanked 120,887 Times in 54,349 Posts

    Question [ฝรั่ง]-((>x265<)) Black Christmas (2019) : คริสต์มาสเชือดสยอง [พากย์ไทย 5.1 + เสียงอังกฤษ DTS-HD MA 5.1]-[บรรยายไทย + อังกฤษ]-[เสียงไทย + ซับไทย From MASTER + ซับ PGS คมชัด]



    Black Christmas_(2019)
    พบกับเรื่องสยองขวัญสุดคลาสสิคที่เกิดขึ้นในช่วงวันห ยุดคริสต์มาส
    เมื่อมีนักฆ่าปรากฏตัวขึ้นในมหาวิทยาลัย แม้ว่าช่วงวันหยุด มหาวิทยาลัยฮอว์ธอร์นจะมีความเงียบสงบ
    แต่กลุ่มเพื่อนสาวชาวหอมูคัปป้าเอปซิลอนซึ่งประกอบด้ วย ไรลีย์ สโตน (อิโมเจน พุทส์ จาก Green Room)
    มาร์ตี้ สาวนักกีฬา (ลิลี่ โดโนฮิว จาก Jane the Virgin) คริส สาวหัวรั้น (อเลส แซนนอน จาก Charmed)
    เจสซี่ สาวนักกิน (บริททานีย์ โอเกรดี้ จาก Star) ก็ยังคงอยู่ตกแต่งหอพักเตรียมรับปาร์ตี้ในช่วงคริสต์ มาส
    ในช่วงเวลานั้น ก็มีคนโรคจิตที่ชอบแอบสะกดรอยตามเริ่มไล่ฆ่านักศึกษา สาวในสโมสรนักศึกษาทีละคน เมื่อเริ่มมีคนเสียชีวิตมากขึ้น
    ไรลีย์และเพื่อน ๆ เริ่มสงสัยผู้ชายใกล้ตัว ไม่ว่าจะเป็น เนท แฟนหนุ่มของมาร์ตี้ (ไซม่อน มีด จาก Same But Different: A True New Zealand Love Story)
    แลนดอน หนุ่มที่มาชอบไรลีย์ (คาเล็บ อีเบอร์ฮาร์ดส์ จาก Mozart in the Jungle) หรือ ศาสตราจารย์ เกลสัน (แครี เอลเวส) ไม่ว่าใครจะเป็นคนฆ่า
    เขาควรจะรู้ว่าสาว ๆ กลุ่มนี้จะไม่ตกเป็นเหยื่อของเขาอย่างแน่นอน!!!

    Code:
    Format                                   : Matroska
    Format version                           : Version 4
    File size                                : 11.4 GiB
    Duration                                 : 1 h 32 min
    Overall bit rate mode                    : Variable
    Overall bit rate                         : 17.7 Mb/s
    Movie name                               : B[email protected]LaKraTos-Siambit
    
    Video
    ID                                       : 1
    Format                                   : HEVC
    Format/Info                              : High Efficiency Video Coding
    Format profile                           : Main [email protected]@High
    Codec ID                                 : V_MPEGH/ISO/HEVC
    Duration                                 : 1 h 32 min
    Bit rate                                 : 13.8 Mb/s
    Width                                    : 1 920 pixels
    Height                                   : 804 pixels
    Display aspect ratio                     : 2.40:1
    Frame rate mode                          : Constant
    Frame rate                               : 23.976 (24000/1001) FPS
    Color space                              : YUV
    Chroma subsampling                       : 4:2:0
    Bit depth                                : 10 bits
    Bits/(Pixel*Frame)                       : 0.372
    Stream size                              : 8.87 GiB (78%)
    Title                                    : B[email protected]LaKraTos-Siambit
    Writing library                          : x265 - H.265/HEVC codec
    Language                                 : English
    Default                                  : Yes
    Forced                                   : No
    
    Audio #1
    ID                                       : 2
    Format                                   : AC-3
    Format/Info                              : Audio Coding 3
    Commercial name                          : Dolby Digital
    Codec ID                                 : A_AC3
    Duration                                 : 1 h 32 min
    Bit rate mode                            : Constant
    Bit rate                                 : 384 kb/s
    Channel(s)                               : 6 channels
    Channel layout                           : L R C LFE Ls Rs
    Sampling rate                            : 48.0 kHz
    Frame rate                               : 31.250 FPS (1536 SPF)
    Compression mode                         : Lossy
    Stream size                              : 253 MiB (2%)
    Title                                    : Thai DVD Master
    Language                                 : Thai
    Service kind                             : Complete Main
    Default                                  : Yes
    Forced                                   : Yes
    
    Audio #2
    ID                                       : 3
    Format                                   : DTS XLL
    Format/Info                              : Digital Theater Systems
    Commercial name                          : DTS-HD Master Audio
    Codec ID                                 : A_DTS
    Duration                                 : 1 h 32 min
    Bit rate mode                            : Variable
    Bit rate                                 : 3 379 kb/s
    Channel(s)                               : 6 channels
    Channel layout                           : C L R Ls Rs LFE
    Sampling rate                            : 48.0 kHz
    Frame rate                               : 93.750 FPS (512 SPF)
    Bit depth                                : 24 bits
    Compression mode                         : Lossless
    Stream size                              : 2.18 GiB (19%)
    Title                                    : English DTS-HD MA 5.1
    Language                                 : English
    Default                                  : No
    Forced                                   : No
    
    Text #1
    ID                                       : 4
    Format                                   : VobSub
    Muxing mode                              : zlib
    Codec ID                                 : S_VOBSUB
    Codec ID/Info                            : Picture based subtitle format used on DVDs
    Duration                                 : 1 h 26 min
    Bit rate                                 : 2 285 b/s
    Count of elements                        : 1341
    Stream size                              : 1.42 MiB (0%)
    Language                                 : English
    Default                                  : No
    Forced                                   : No
    
    Text #2
    ID                                       : 5
    Format                                   : VobSub
    Muxing mode                              : zlib
    Codec ID                                 : S_VOBSUB
    Codec ID/Info                            : Picture based subtitle format used on DVDs
    Duration                                 : 1 h 31 min
    Bit rate                                 : 1 613 b/s
    Count of elements                        : 1015
    Stream size                              : 1.05 MiB (0%)
    Language                                 : Thai
    Default                                  : No
    Forced                                   : No
    
    Text #3
    ID                                       : 6
    Format                                   : VobSub
    Muxing mode                              : zlib
    Codec ID                                 : S_VOBSUB
    Codec ID/Info                            : Picture based subtitle format used on DVDs
    Duration                                 : 1 h 30 min
    Bit rate                                 : 45 b/s
    Count of elements                        : 31
    Stream size                              : 30.1 KiB (0%)
    Language                                 : Thai
    Default                                  : No
    Forced                                   : No
    
    Text #4
    ID                                       : 7
    Format                                   : VobSub
    Muxing mode                              : zlib
    Codec ID                                 : S_VOBSUB
    Codec ID/Info                            : Picture based subtitle format used on DVDs
    Duration                                 : 1 h 31 min
    Bit rate                                 : 3 276 b/s
    Count of elements                        : 1015
    Stream size                              : 2.15 MiB (0%)
    Language                                 : Thai
    Default                                  : No
    Forced                                   : No
    
    Text #5
    ID                                       : 8
    Format                                   : VobSub
    Muxing mode                              : zlib
    Codec ID                                 : S_VOBSUB
    Codec ID/Info                            : Picture based subtitle format used on DVDs
    Duration                                 : 1 h 31 min
    Bit rate                                 : 5 333 b/s
    Count of elements                        : 1015
    Stream size                              : 3.51 MiB (0%)
    Language                                 : Thai
    Default                                  : No
    Forced                                   : No
    
    Text #6
    ID                                       : 9
    Format                                   : VobSub
    Muxing mode                              : zlib
    Codec ID                                 : S_VOBSUB
    Codec ID/Info                            : Picture based subtitle format used on DVDs
    Duration                                 : 1 h 31 min
    Bit rate                                 : 6 966 b/s
    Count of elements                        : 1015
    Stream size                              : 4.58 MiB (0%)
    Language                                 : Thai
    Default                                  : No
    Forced                                   : No
    
    Text #7
    ID                                       : 10
    Format                                   : VobSub
    Muxing mode                              : zlib
    Codec ID                                 : S_VOBSUB
    Codec ID/Info                            : Picture based subtitle format used on DVDs
    Duration                                 : 1 h 31 min
    Bit rate                                 : 5 306 b/s
    Count of elements                        : 1015
    Stream size                              : 3.49 MiB (0%)
    Language                                 : Thai
    Default                                  : No
    Forced                                   : No
    
    Text #8
    ID                                       : 11
    Format                                   : VobSub
    Muxing mode                              : zlib
    Codec ID                                 : S_VOBSUB
    Codec ID/Info                            : Picture based subtitle format used on DVDs
    Duration                                 : 1 h 31 min
    Bit rate                                 : 5 314 b/s
    Count of elements                        : 1015
    Stream size                              : 3.50 MiB (0%)
    Language                                 : Thai
    Default                                  : No
    Forced                                   : No
    
    Text #9
    ID                                       : 12
    Format                                   : VobSub
    Muxing mode                              : zlib
    Codec ID                                 : S_VOBSUB
    Codec ID/Info                            : Picture based subtitle format used on DVDs
    Duration                                 : 1 h 31 min
    Bit rate                                 : 6 946 b/s
    Count of elements                        : 1015
    Stream size                              : 4.57 MiB (0%)
    Language                                 : Thai
    Default                                  : No
    Forced                                   : No
    
    Text #10
    ID                                       : 13
    Format                                   : PGS
    Muxing mode                              : zlib
    Codec ID                                 : S_HDMV/PGS
    Codec ID/Info                            : Picture based subtitle format used on BDs/HD-DVDs
    Duration                                 : 1 h 31 min
    Bit rate                                 : 16.9 kb/s
    Count of elements                        : 2038
    Stream size                              : 11.1 MiB (0%)
    Title                                    : Thai PGS
    Language                                 : Thai
    Default                                  : Yes
    Forced                                   : Yes
    
    Text #11
    ID                                       : 14
    Format                                   : PGS
    Muxing mode                              : zlib
    Codec ID                                 : S_HDMV/PGS
    Codec ID/Info                            : Picture based subtitle format used on BDs/HD-DVDs
    Duration                                 : 1 h 31 min
    Bit rate                                 : 17.4 kb/s
    Count of elements                        : 2038
    Stream size                              : 11.4 MiB (0%)
    Title                                    : Thai PGS Yellow
    Language                                 : Thai
    Default                                  : No
    Forced                                   : No
    
    Text #12
    ID                                       : 15
    Format                                   : PGS
    Muxing mode                              : zlib
    Codec ID                                 : S_HDMV/PGS
    Codec ID/Info                            : Picture based subtitle format used on BDs/HD-DVDs
    Duration                                 : 1 h 31 min
    Bit rate                                 : 17.1 kb/s
    Count of elements                        : 2038
    Stream size                              : 11.2 MiB (0%)
    Title                                    : Thai PGS Out
    Language                                 : Thai
    Default                                  : No
    Forced                                   : No
    
    Text #13
    ID                                       : 16
    Format                                   : PGS
    Muxing mode                              : zlib
    Codec ID                                 : S_HDMV/PGS
    Codec ID/Info                            : Picture based subtitle format used on BDs/HD-DVDs
    Duration                                 : 1 h 26 min
    Bit rate                                 : 13.0 kb/s
    Count of elements                        : 2682
    Stream size                              : 8.08 MiB (0%)
    Title                                    : English
    Language                                 : English
    Default                                  : No
    Forced                                   : No
    
    Menu
    00:00:00.000                             : :1
    00:06:54.372                             : :2
    00:11:31.691                             : :3
    00:13:54.208                             : :4
    00:18:01.080                             : :5
    00:23:23.652                             : :6
    00:28:21.283                             : :7
    00:33:51.488                             : :8
    00:37:07.559                             : :9
    00:41:20.603                             : :10
    00:47:05.656                             : :11
    00:53:29.832                             : :12
    00:58:13.699                             : :13
    01:03:12.664                             : :14
    01:06:28.443                             : :15
    01:10:02.573                             : :16










    http://cornfile.com/0u742p2z0vk4
    http://www.mekafile.com/dl.php?f=gh8293c7po91

  2. #2
    Senior Member
    สมัครเมื่อ
    Jun 2014
    โพสต์
    3,811
    Thanks
    0
    Thanked 0 Times in 0 Posts
    ขอบคุณครับ

+ ตอบกลับกระทู้

ข้อมูลกระทู้

Users Browsing this Thread

ในขณะนี้มี 1 ท่านดูกระทู้อยู่. (0 สมาชิกและ 1 ผู้เยี่ยมชม)

     

กฎการโพสต์ข้อความ

  • ท่าน ไม่สามารถ ตั้งกระทู้ใหม่ได้
  • ท่าน ไม่สามารถ ตอบกระทู้ได้
  • ท่าน ไม่สามารถ แนบไฟล์ได้
  • ท่าน ไม่สามารถ แก้ไขข้อความโพสต์ได้
  • BB code สถานะ เปิด
  • Smilies สถานะ เปิด
  • [IMG] สถานะ เปิด
  • HTML สถานะ ปิด