+ ตอบกลับกระทู้
สรุปผลการค้นหา 1 ถึง 1 จากทั้งหมด 1
  1. #1
    Administrators รูปส่วนตัว Duckload.us
    สมัครเมื่อ
    Dec 2010
    โพสต์
    114,512
    Thanks
    7
    Thanked 120,851 Times in 54,337 Posts

    Lightbulb [เกาหลี]-[NF][Kr.Series - Full Hi Def 1080p Complete Pack] *** Hi Bye Mama! (2020) *** Complete (E01-E16end) - ตอนที่ 1-16จบ - WEB-DL.H.264.1080p. [From HD-TV]-[Soundtrack บรรยายไทย]



    ชื่อเรื่อง : Hi Bye Mama! (하 이 바 이 , 마 마 )
    แนว : แฟนตาซี / คอมเมดี้
    ผู้กำกับ : ยูแจวอน
    คนเขียนบท : ควอนฮเยจู
    ช่อง : tvN
    จำนวนตอน : 16
    ช่วงเวลาออนแอร์ : 22 กุมภาพันธ์ – 12 เมษายน 2563
    วัน-เวลาออนแอร์ : เสาร์-อาทิตย์ 21.00 น. (ตามเวลาเกาหลีใต้)

    นักแสดง
    คิมแทฮี รับบทเป็น ชายูริ
    อีคยูฮยอง รับบทเป็น โจคังฮวา
    โกโบกยอล รับบทเป็น โอมินจอง



    เรื่องย่อ
    บอกเล่าเรื่องราวของ ชายูริ (รับบทโดย คิมแทฮี) หญิงสาวที่กลายเป็นผีมากว่า 5 ปีหลังจากการเสียชีวิตในอุบัติเหตุ เธอได้มีโอกาสอีกครั้งในการที่จะได้กลับมาเป็นมนุษย์ ซึ่งข้อเสนอครั้งนี้เธอจะอยู่ได้เพียงแค่ 49 วัน โดยสามีของเธอคือ โจควังฮวา (รับบทโดย อีคยูฮยอง) ซึ่งทำงานเป็นศัลยแพทย์ที่เชียวชาญด้านการผ่าตัดทรวง อก เขาเป็นคนน่ารักมากจนเมื่อภรรยาเสียชีวิตไป บุคลิกของเขาก็เปลี่ยนไป หลังจาก 5 ปีที่เกิดเรื่องเศร้าขึ้น ภรรยาของเขาก็ปรากฏตัวอีกครั้งดั่งปาฏิหาริย์


    Code:
    Format                                   : Matroska
    Format version                           : Version 4
    File size                                : 1.80 GiB
    Duration                                 : 1 h 11 min
    Overall bit rate mode                    : Variable
    Overall bit rate                         : 3 606 kb/s
    Encoded date                             : UTC 2020-04-20 05:04:36
    Writing application                      : mkvmerge v35.0.0 ('All The Love In The World') 64-bit
    Writing library                          : libebml v1.3.9 + libmatroska v1.5.2
    
    Video
    ID                                       : 1
    Format                                   : AVC
    Format/Info                              : Advanced Video Codec
    Format profile                           : [email protected]
    Format settings                          : CABAC / 3 Ref Frames
    Format settings, CABAC                   : Yes
    Format settings, Reference frames        : 3 frames
    Codec ID                                 : V_MPEG4/ISO/AVC
    Duration                                 : 1 h 11 min
    Bit rate mode                            : Variable
    Bit rate                                 : 3 480 kb/s
    Maximum bit rate                         : 5 220 kb/s
    Width                                    : 1 920 pixels
    Height                                   : 1 080 pixels
    Display aspect ratio                     : 16:9
    Frame rate mode                          : Constant
    Frame rate                               : 23.976 (24000/1001) FPS
    Color space                              : YUV
    Chroma subsampling                       : 4:2:0
    Bit depth                                : 8 bits
    Scan type                                : Progressive
    Bits/(Pixel*Frame)                       : 0.070
    Stream size                              : 1.73 GiB (96%)
    Writing library                          : x264 core 148 r2717 0d2410d
    Encoding settings                        : cabac=1 / ref=3 / deblock=1:0:0 / analyse=0x1:0x111 / me=umh / subme=10 / psy=1 / psy_rd=1.00:0.00 / mixed_ref=1 / me_range=24 / chroma_me=1 / trellis=2 / 8x8dct=0 / cqm=0 / deadzone=21,11 / fast_pskip=1 / chroma_qp_offset=-2 / threads=8 / lookahead_threads=1 / sliced_threads=0 / nr=0 / decimate=1 / interlaced=0 / bluray_compat=0 / stitchable=1 / constrained_intra=0 / bframes=2 / b_pyramid=0 / b_adapt=2 / b_bias=0 / direct=3 / weightb=1 / open_gop=0 / weightp=2 / keyint=250 / keyint_min=23 / scenecut=0 / intra_refresh=0 / rc_lookahead=48 / rc=2pass / mbtree=1 / bitrate=3480 / ratetol=1.0 / qcomp=0.50 / qpmin=6 / qpmax=51 / qpstep=4 / cplxblur=20.0 / qblur=0.5 / vbv_maxrate=5220 / vbv_bufsize=6960 / nal_hrd=vbr / filler=0 / ip_ratio=1.40 / aq=1:1.00
    Default                                  : Yes
    Forced                                   : No
    
    Audio
    ID                                       : 2
    Format                                   : E-AC-3
    Format/Info                              : Enhanced AC-3
    Commercial name                          : Dolby Digital Plus
    Codec ID                                 : A_EAC3
    Duration                                 : 1 h 11 min
    Bit rate mode                            : Constant
    Bit rate                                 : 128 kb/s
    Channel(s)                               : 2 channels
    Channel layout                           : L R
    Sampling rate                            : 48.0 kHz
    Frame rate                               : 31.250 FPS (1536 SPF)
    Compression mode                         : Lossy
    Stream size                              : 65.4 MiB (4%)
    Language                                 : Korean
    Service kind                             : Complete Main
    Default                                  : Yes
    Forced                                   : No
    
    Text #1
    ID                                       : 3
    Format                                   : UTF-8
    Codec ID                                 : S_TEXT/UTF8
    Codec ID/Info                            : UTF-8 Plain Text
    Duration                                 : 1 h 10 min
    Bit rate                                 : 51 b/s
    Count of elements                        : 891
    Stream size                              : 26.6 KiB (0%)
    Language                                 : English
    Default                                  : Yes
    Forced                                   : No
    
    Text #2
    ID                                       : 4
    Format                                   : UTF-8
    Codec ID                                 : S_TEXT/UTF8
    Codec ID/Info                            : UTF-8 Plain Text
    Duration                                 : 1 h 10 min
    Bit rate                                 : 86 b/s
    Count of elements                        : 1126
    Stream size                              : 44.8 KiB (0%)
    Title                                    : SDH
    Language                                 : Korean
    Default                                  : No
    Forced                                   : No
    
    Text #3
    ID                                       : 5
    Format                                   : UTF-8
    Codec ID                                 : S_TEXT/UTF8
    Codec ID/Info                            : UTF-8 Plain Text
    Duration                                 : 1 h 11 min
    Bit rate                                 : 87 b/s
    Count of elements                        : 953
    Stream size                              : 45.5 KiB (0%)
    Language                                 : Arabic
    Default                                  : No
    Forced                                   : No
    
    Text #4
    ID                                       : 6
    Format                                   : UTF-8
    Codec ID                                 : S_TEXT/UTF8
    Codec ID/Info                            : UTF-8 Plain Text
    Duration                                 : 1 h 11 min
    Bit rate                                 : 47 b/s
    Count of elements                        : 953
    Stream size                              : 24.9 KiB (0%)
    Language                                 : Czech
    Default                                  : No
    Forced                                   : No
    
    Text #5
    ID                                       : 7
    Format                                   : UTF-8
    Codec ID                                 : S_TEXT/UTF8
    Codec ID/Info                            : UTF-8 Plain Text
    Duration                                 : 1 h 11 min
    Bit rate                                 : 48 b/s
    Count of elements                        : 950
    Stream size                              : 25.4 KiB (0%)
    Language                                 : Danish
    Default                                  : No
    Forced                                   : No
    
    Text #6
    ID                                       : 8
    Format                                   : UTF-8
    Codec ID                                 : S_TEXT/UTF8
    Codec ID/Info                            : UTF-8 Plain Text
    Duration                                 : 1 h 11 min
    Bit rate                                 : 53 b/s
    Count of elements                        : 952
    Stream size                              : 27.9 KiB (0%)
    Language                                 : German
    Default                                  : No
    Forced                                   : No
    
    Text #7
    ID                                       : 9
    Format                                   : UTF-8
    Codec ID                                 : S_TEXT/UTF8
    Codec ID/Info                            : UTF-8 Plain Text
    Duration                                 : 1 h 11 min
    Bit rate                                 : 86 b/s
    Count of elements                        : 952
    Stream size                              : 45.0 KiB (0%)
    Language                                 : Greek
    Default                                  : No
    Forced                                   : No
    
    Text #8
    ID                                       : 10
    Format                                   : UTF-8
    Codec ID                                 : S_TEXT/UTF8
    Codec ID/Info                            : UTF-8 Plain Text
    Duration                                 : 1 h 10 min
    Bit rate                                 : 50 b/s
    Count of elements                        : 952
    Stream size                              : 26.3 KiB (0%)
    Title                                    : Latin American
    Language                                 : Spanish
    Default                                  : No
    Forced                                   : No
    
    Text #9
    ID                                       : 11
    Format                                   : UTF-8
    Codec ID                                 : S_TEXT/UTF8
    Codec ID/Info                            : UTF-8 Plain Text
    Duration                                 : 1 h 11 min
    Bit rate                                 : 48 b/s
    Count of elements                        : 953
    Stream size                              : 25.1 KiB (0%)
    Title                                    : European
    Language                                 : Spanish
    Default                                  : No
    Forced                                   : No
    
    Text #10
    ID                                       : 12
    Format                                   : UTF-8
    Codec ID                                 : S_TEXT/UTF8
    Codec ID/Info                            : UTF-8 Plain Text
    Duration                                 : 1 h 11 min
    Bit rate                                 : 49 b/s
    Count of elements                        : 952
    Stream size                              : 25.9 KiB (0%)
    Language                                 : Finnish
    Default                                  : No
    Forced                                   : No
    
    Text #11
    ID                                       : 13
    Format                                   : UTF-8
    Codec ID                                 : S_TEXT/UTF8
    Codec ID/Info                            : UTF-8 Plain Text
    Duration                                 : 1 h 11 min
    Bit rate                                 : 53 b/s
    Count of elements                        : 949
    Stream size                              : 27.9 KiB (0%)
    Language                                 : French
    Default                                  : No
    Forced                                   : No
    
    Text #12
    ID                                       : 14
    Format                                   : UTF-8
    Codec ID                                 : S_TEXT/UTF8
    Codec ID/Info                            : UTF-8 Plain Text
    Duration                                 : 1 h 11 min
    Bit rate                                 : 78 b/s
    Count of elements                        : 953
    Stream size                              : 40.7 KiB (0%)
    Language                                 : Hebrew
    Default                                  : No
    Forced                                   : No
    
    Text #13
    ID                                       : 15
    Format                                   : UTF-8
    Codec ID                                 : S_TEXT/UTF8
    Codec ID/Info                            : UTF-8 Plain Text
    Duration                                 : 1 h 11 min
    Bit rate                                 : 48 b/s
    Count of elements                        : 952
    Stream size                              : 25.5 KiB (0%)
    Language                                 : Hungarian
    Default                                  : No
    Forced                                   : No
    
    Text #14
    ID                                       : 16
    Format                                   : UTF-8
    Codec ID                                 : S_TEXT/UTF8
    Codec ID/Info                            : UTF-8 Plain Text
    Duration                                 : 1 h 10 min
    Bit rate                                 : 48 b/s
    Count of elements                        : 952
    Stream size                              : 25.2 KiB (0%)
    Language                                 : Indonesian
    Default                                  : No
    Forced                                   : No
    
    Text #15
    ID                                       : 17
    Format                                   : UTF-8
    Codec ID                                 : S_TEXT/UTF8
    Codec ID/Info                            : UTF-8 Plain Text
    Duration                                 : 1 h 11 min
    Bit rate                                 : 52 b/s
    Count of elements                        : 952
    Stream size                              : 27.3 KiB (0%)
    Language                                 : Italian
    Default                                  : No
    Forced                                   : No
    
    Text #16
    ID                                       : 18
    Format                                   : UTF-8
    Codec ID                                 : S_TEXT/UTF8
    Codec ID/Info                            : UTF-8 Plain Text
    Duration                                 : 1 h 11 min
    Bit rate                                 : 49 b/s
    Count of elements                        : 844
    Stream size                              : 25.6 KiB (0%)
    Language                                 : Japanese
    Default                                  : No
    Forced                                   : No
    
    Text #17
    ID                                       : 19
    Format                                   : UTF-8
    Codec ID                                 : S_TEXT/UTF8
    Codec ID/Info                            : UTF-8 Plain Text
    Duration                                 : 1 h 11 min
    Bit rate                                 : 0 b/s
    Count of elements                        : 5
    Stream size                              : 95.0 Bytes (0%)
    Title                                    : Forced
    Language                                 : Korean
    Default                                  : No
    Forced                                   : No
    
    Text #18
    ID                                       : 20
    Format                                   : UTF-8
    Codec ID                                 : S_TEXT/UTF8
    Codec ID/Info                            : UTF-8 Plain Text
    Duration                                 : 1 h 11 min
    Bit rate                                 : 50 b/s
    Count of elements                        : 952
    Stream size                              : 26.2 KiB (0%)
    Language                                 : Norwegian Bokmal
    Default                                  : No
    Forced                                   : No
    
    Text #19
    ID                                       : 21
    Format                                   : UTF-8
    Codec ID                                 : S_TEXT/UTF8
    Codec ID/Info                            : UTF-8 Plain Text
    Duration                                 : 1 h 11 min
    Bit rate                                 : 44 b/s
    Count of elements                        : 954
    Stream size                              : 23.3 KiB (0%)
    Language                                 : Dutch
    Default                                  : No
    Forced                                   : No
    
    Text #20
    ID                                       : 22
    Format                                   : UTF-8
    Codec ID                                 : S_TEXT/UTF8
    Codec ID/Info                            : UTF-8 Plain Text
    Duration                                 : 1 h 11 min
    Bit rate                                 : 47 b/s
    Count of elements                        : 950
    Stream size                              : 25.0 KiB (0%)
    Language                                 : Polish
    Default                                  : No
    Forced                                   : No
    
    Text #21
    ID                                       : 23
    Format                                   : UTF-8
    Codec ID                                 : S_TEXT/UTF8
    Codec ID/Info                            : UTF-8 Plain Text
    Duration                                 : 1 h 11 min
    Bit rate                                 : 49 b/s
    Count of elements                        : 953
    Stream size                              : 25.8 KiB (0%)
    Title                                    : European
    Language                                 : Portuguese
    Default                                  : No
    Forced                                   : No
    
    Text #22
    ID                                       : 24
    Format                                   : UTF-8
    Codec ID                                 : S_TEXT/UTF8
    Codec ID/Info                            : UTF-8 Plain Text
    Duration                                 : 1 h 10 min
    Bit rate                                 : 47 b/s
    Count of elements                        : 946
    Stream size                              : 24.9 KiB (0%)
    Title                                    : Brazilian
    Language                                 : Portuguese
    Default                                  : No
    Forced                                   : No
    
    Text #23
    ID                                       : 25
    Format                                   : UTF-8
    Codec ID                                 : S_TEXT/UTF8
    Codec ID/Info                            : UTF-8 Plain Text
    Duration                                 : 1 h 11 min
    Bit rate                                 : 58 b/s
    Count of elements                        : 952
    Stream size                              : 30.4 KiB (0%)
    Language                                 : Romanian
    Default                                  : No
    Forced                                   : No
    
    Text #24
    ID                                       : 26
    Format                                   : UTF-8
    Codec ID                                 : S_TEXT/UTF8
    Codec ID/Info                            : UTF-8 Plain Text
    Duration                                 : 1 h 11 min
    Bit rate                                 : 77 b/s
    Count of elements                        : 953
    Stream size                              : 40.4 KiB (0%)
    Language                                 : Russian
    Default                                  : No
    Forced                                   : No
    
    Text #25
    ID                                       : 27
    Format                                   : UTF-8
    Codec ID                                 : S_TEXT/UTF8
    Codec ID/Info                            : UTF-8 Plain Text
    Duration                                 : 1 h 11 min
    Bit rate                                 : 51 b/s
    Count of elements                        : 953
    Stream size                              : 26.8 KiB (0%)
    Language                                 : Swedish
    Default                                  : No
    Forced                                   : No
    
    Text #26
    ID                                       : 28
    Format                                   : UTF-8
    Codec ID                                 : S_TEXT/UTF8
    Codec ID/Info                            : UTF-8 Plain Text
    Duration                                 : 1 h 11 min
    Bit rate                                 : 125 b/s
    Count of elements                        : 957
    Stream size                              : 65.2 KiB (0%)
    Language                                 : Thai
    Default                                  : No
    Forced                                   : No
    
    Text #27
    ID                                       : 29
    Format                                   : UTF-8
    Codec ID                                 : S_TEXT/UTF8
    Codec ID/Info                            : UTF-8 Plain Text
    Duration                                 : 1 h 11 min
    Bit rate                                 : 49 b/s
    Count of elements                        : 951
    Stream size                              : 26.0 KiB (0%)
    Language                                 : Turkish
    Default                                  : No
    Forced                                   : No
    
    Text #28
    ID                                       : 30
    Format                                   : UTF-8
    Codec ID                                 : S_TEXT/UTF8
    Codec ID/Info                            : UTF-8 Plain Text
    Duration                                 : 1 h 11 min
    Bit rate                                 : 73 b/s
    Count of elements                        : 954
    Stream size                              : 38.0 KiB (0%)
    Language                                 : Vietnamese
    Default                                  : No
    Forced                                   : No
    
    Text #29
    ID                                       : 31
    Format                                   : UTF-8
    Codec ID                                 : S_TEXT/UTF8
    Codec ID/Info                            : UTF-8 Plain Text
    Duration                                 : 1 h 11 min
    Bit rate                                 : 53 b/s
    Count of elements                        : 964
    Stream size                              : 28.0 KiB (0%)
    Title                                    : Simplified
    Language                                 : Chinese
    Default                                  : No
    Forced                                   : No
    
    Text #30
    ID                                       : 32
    Format                                   : UTF-8
    Codec ID                                 : S_TEXT/UTF8
    Codec ID/Info                            : UTF-8 Plain Text
    Duration                                 : 1 h 11 min
    Bit rate                                 : 54 b/s
    Count of elements                        : 954
    Stream size                              : 28.4 KiB (0%)
    Title                                    : Traditional
    Language                                 : Chinese
    Default                                  : No
    Forced                                   : No


    1
    http://www.filecondo.com/dl.php?f=J62d721JsFDk
    2
    http://www.filecondo.com/dl.php?f=K445db1JsFEd
    3
    http://www.filecondo.com/dl.php?f=s3c1251JsFFc
    4
    http://www.filecondo.com/dl.php?f=3d6d981JsFG1
    5
    http://www.filecondo.com/dl.php?f=Va7b071JsFH8
    6
    http://www.filecondo.com/dl.php?f=76984b1JsFHP
    7
    http://www.filecondo.com/dl.php?f=b682501JsFIQ
    8
    http://www.filecondo.com/dl.php?f=Qcda321JsFJP
    9
    http://www.filecondo.com/dl.php?f=Y07efd1JsFKR
    10
    http://www.filecondo.com/dl.php?f=Ce86391JsFMK
    11
    http://www.filecondo.com/dl.php?f=m9cb381JsFNE
    12
    http://www.filecondo.com/dl.php?f=Va84721JsFOD
    13
    http://www.filecondo.com/dl.php?f=D0cc211JsFPy
    14
    http://www.filecondo.com/dl.php?f=n199dd1JsFRx
    15
    http://www.filecondo.com/dl.php?f=I4c1881JsFTu
    16
    http://www.filecondo.com/dl.php?f=859c121JsFWs

  2. The Following User Says Thank You to Duckload.us For This Useful Post:

    JOMMY_2 (04-27-2020)

+ ตอบกลับกระทู้

ข้อมูลกระทู้

Users Browsing this Thread

ในขณะนี้มี 1 ท่านดูกระทู้อยู่. (0 สมาชิกและ 1 ผู้เยี่ยมชม)

     

กฎการโพสต์ข้อความ

  • ท่าน ไม่สามารถ ตั้งกระทู้ใหม่ได้
  • ท่าน ไม่สามารถ ตอบกระทู้ได้
  • ท่าน ไม่สามารถ แนบไฟล์ได้
  • ท่าน ไม่สามารถ แก้ไขข้อความโพสต์ได้
  • BB code สถานะ เปิด
  • Smilies สถานะ เปิด
  • [IMG] สถานะ เปิด
  • HTML สถานะ ปิด