Code:
General
Unique ID                   : 168143187311937998588288733898344912034 (0x7E7F332F31BB583157A4C2ECA3E654A2)
Complete name               : D:DownloadMoviesFrozen.II.2019.1080p.3D.BluRay.Half-SBS.x264.TrueHD.7.1.Atmos-FGT.mkv
Format                      : Matroska
Format version              : Version 4
File size                   : 19.6 GiB
Duration                    : 1 h 43 min
Overall bit rate mode       : Variable
Overall bit rate            : 27.2 Mb/s
Movie name                  : Frozen.II.2019.1080p.3D.BluRay.Half-SBS.x264.TrueHD.7.1.Atmos-FGT
Encoded date                : UTC 2020-05-14 16:32:13
Writing application         : mkvmerge v46.0.0 ('No Deeper Escape') 64-bit
Writing library             : libebml v1.3.10 + libmatroska v1.5.2
Cover                       : Yes
Attachments                 : small_cover.jpg / small_cover_land.jpg / cover.jpg / cover_land.jpg / cover_land.jpg / small_cover.jpg / small_cover_land.jpg / cover.jpg / cover

Video
ID                          : 5
Format                      : AVC
Format/Info                 : Advanced Video Codec
Format profile              : [email protected]
Format settings             : CABAC / 3 Ref Frames
Format settings, CABAC      : Yes
Format settings, ReFrames   : 3 frames
Codec ID                    : V_MPEG4/ISO/AVC
Duration                    : 1 h 43 min
Bit rate                    : 15.5 Mb/s
Width                       : 1 920 pixels
Height                      : 1 080 pixels
Display aspect ratio        : 16:9
Frame rate mode             : Constant
Frame rate                  : 23.976 (24000/1001) FPS
Color space                 : YUV
Chroma subsampling          : 4:2:0
Bit depth                   : 8 bits
Scan type                   : Progressive
Bits/(Pixel*Frame)          : 0.312
Stream size                 : 11.1 GiB (57%)
Title                       : Frozen.II.2019.1080p.3D.BluRay.Half-SBS.x264.TrueHD.7.1.Atmos-FGT
Writing library             : x264 core 148
Encoding settings           : cabac=1 / ref=3 / deblock=1:-1:-1 / analyse=0x3:0 / me=hex / subme=5 / psy=1 / psy_rd=1.00:0.00 / mixed_ref=0 / me_range=16 / chroma_me=1 / trellis=1 / 8x8dct=1 / cqm=0 / deadzone=21,11 / fast_pskip=0 / chroma_qp_offset=0 / threads=24 / lookahead_threads=6 / sliced_threads=0 / nr=0 / decimate=1 / interlaced=0 / bluray_compat=0 / constrained_intra=0 / bframes=2 / b_pyramid=0 / b_adapt=1 / b_bias=0 / direct=1 / weightb=0 / open_gop=0 / weightp=0 / keyint=24 / keyint_min=2 / scenecut=40 / intra_refresh=0 / rc=abr / mbtree=0 / bitrate=15500 / ratetol=1.0 / qcomp=0.60 / qpmin=0 / qpmax=69 / qpstep=4 / ip_ratio=1.40 / pb_ratio=1.30 / aq=1:1.00
Default                     : Yes
Forced                      : No
Color range                 : Limited
Color primaries             : BT.709
Transfer characteristics    : BT.709
Matrix coefficients         : BT.709

Audio #1
ID                          : 1
Format                      : AAC LC SBR
Format/Info                 : Advanced Audio Codec Low Complexity with Spectral Band Replication
Commercial name             : HE-AAC
Format settings             : Explicit
Codec ID                    : A_AAC-2
Duration                    : 1 h 43 min
Bit rate                    : 384 kb/s
Channel(s)                  : 6 channels
Channel layout              : C L R Ls Rs LFE
Sampling rate               : 48.0 kHz
Frame rate                  : 23.438 FPS (2048 SPF)
Compression mode            : Lossy
Delay relative to video     : 700 ms
Stream size                 : 282 MiB (1%)
Title                       : THA
Language                    : Thai
Default                     : Yes
Forced                      : Yes

Audio #2
ID                          : 6
Format                      : MLP FBA 16-ch
Format/Info                 : Meridian Lossless Packing FBA with 16-channel presentation
Commercial name             : Dolby TrueHD with Dolby Atmos
Codec ID                    : A_TRUEHD
Duration                    : 1 h 43 min
Bit rate mode               : Variable
Bit rate                    : 8 449 kb/s
Maximum bit rate            : 10.6 Mb/s
Channel(s)                  : 8 channels
Channel layout              : L R C LFE Ls Rs Lb Rb
Sampling rate               : 48.0 kHz
Frame rate                  : 1 200.000 FPS (40 SPF)
Compression mode            : Lossless
Stream size                 : 6.09 GiB (31%)
Title                       : Frozen.II.2019.1080p.3D.BluRay.Half-SBS.x264.TrueHD.7.1.Atmos-FGT
Language                    : English
Default                     : No
Forced                      : No
Number of dynamic objects   : 13
Bed channel count           : 1 channel
Bed channel configuration   : LFE

Audio #3
ID                          : 7
Format                      : AC-3
Format/Info                 : Audio Coding 3
Commercial name             : Dolby Digital
Codec ID                    : A_AC3
Duration                    : 1 h 43 min
Bit rate mode               : Constant
Bit rate                    : 640 kb/s
Channel(s)                  : 6 channels
Channel layout              : L R C LFE Ls Rs
Sampling rate               : 48.0 kHz
Frame rate                  : 31.250 FPS (1536 SPF)
Bit depth                   : 16 bits
Compression mode            : Lossy
Stream size                 : 473 MiB (2%)
Title                       : Frozen.II.2019.1080p.3D.BluRay.Half-SBS.x264.TrueHD.7.1.Atmos-FGT
Language                    : English
Service kind                : Complete Main
Default                     : No
Forced                      : No

Audio #4
ID                          : 8
Format                      : AC-3
Format/Info                 : Audio Coding 3
Commercial name             : Dolby Digital
Codec ID                    : A_AC3
Duration                    : 1 h 43 min
Bit rate mode               : Constant
Bit rate                    : 320 kb/s
Channel(s)                  : 2 channels
Channel layout              : L R
Sampling rate               : 48.0 kHz
Frame rate                  : 31.250 FPS (1536 SPF)
Bit depth                   : 16 bits
Compression mode            : Lossy
Stream size                 : 236 MiB (1%)
Title                       : Frozen.II.2019.1080p.3D.BluRay.Half-SBS.x264.TrueHD.7.1.Atmos-FGT
Language                    : English
Service kind                : Complete Main
Default                     : No
Forced                      : No

Audio #5
ID                          : 9
Format                      : E-AC-3
Format/Info                 : Enhanced AC-3
Commercial name             : Dolby Digital Plus
Format profile              : Blu-ray Disc
Codec ID                    : A_EAC3
Duration                    : 1 h 43 min
Bit rate mode               : Constant
Bit rate                    : 896 kb/s
Channel(s)                  : 8 channels
Channel layout              : L R C LFE Ls Rs Lb Rb
Sampling rate               : 48.0 kHz
Frame rate                  : 31.250 FPS (1536 SPF)
Compression mode            : Lossy
Stream size                 : 662 MiB (3%)
Title                       : Frozen.II.2019.1080p.3D.BluRay.Half-SBS.x264.TrueHD.7.1.Atmos-FGT
Language                    : French
Service kind                : Complete Main
Default                     : No
Forced                      : No

Audio #6
ID                          : 10
Format                      : E-AC-3
Format/Info                 : Enhanced AC-3
Commercial name             : Dolby Digital Plus
Format profile              : Blu-ray Disc
Codec ID                    : A_EAC3
Duration                    : 1 h 43 min
Bit rate mode               : Constant
Bit rate                    : 896 kb/s
Channel(s)                  : 8 channels
Channel layout              : L R C LFE Ls Rs Lb Rb
Sampling rate               : 48.0 kHz
Frame rate                  : 31.250 FPS (1536 SPF)
Compression mode            : Lossy
Stream size                 : 662 MiB (3%)
Title                       : Frozen.II.2019.1080p.3D.BluRay.Half-SBS.x264.TrueHD.7.1.Atmos-FGT
Language                    : German
Service kind                : Complete Main
Default                     : No
Forced                      : No

Text #1
ID                          : 2
Format                      : PGS
Muxing mode                 : zlib
Codec ID                    : S_HDMV/PGS
Codec ID/Info               : Picture based subtitle format used on BDs/HD-DVDs
Duration                    : 1 h 41 min
Bit rate                    : 38.5 kb/s
Count of elements           : 2626
Stream size                 : 28.0 MiB (0%)
Title                       : Gray
Language                    : Thai
Default                     : No
Forced                      : No

Text #2
ID                          : 3
Format                      : PGS
Muxing mode                 : zlib
Codec ID                    : S_HDMV/PGS
Codec ID/Info               : Picture based subtitle format used on BDs/HD-DVDs
Duration                    : 1 h 41 min
Bit rate                    : 38.5 kb/s
Count of elements           : 2626
Stream size                 : 28.0 MiB (0%)
Title                       : White
Language                    : Thai
Default                     : No
Forced                      : No

Text #3
ID                          : 4
Format                      : PGS
Muxing mode                 : zlib
Codec ID                    : S_HDMV/PGS
Codec ID/Info               : Picture based subtitle format used on BDs/HD-DVDs
Duration                    : 1 h 41 min
Bit rate                    : 38.5 kb/s
Count of elements           : 2626
Stream size                 : 28.0 MiB (0%)
Title                       : Yellow
Language                    : Thai
Default                     : No
Forced                      : No

Text #4
ID                          : 11
Format                      : PGS
Muxing mode                 : zlib
Codec ID                    : S_HDMV/PGS
Codec ID/Info               : Picture based subtitle format used on BDs/HD-DVDs
Duration                    : 1 h 42 min
Bit rate                    : 59.5 kb/s
Count of elements           : 3872
Stream size                 : 43.6 MiB (0%)
Title                       : English-PGS
Language                    : English
Default                     : Yes
Forced                      : No

Text #5
ID                          : 12
Format                      : PGS
Muxing mode                 : zlib
Codec ID                    : S_HDMV/PGS
Codec ID/Info               : Picture based subtitle format used on BDs/HD-DVDs
Duration                    : 1 h 41 min
Bit rate                    : 39.5 kb/s
Count of elements           : 2524
Stream size                 : 28.7 MiB (0%)
Title                       : French-PGS
Language                    : French
Default                     : No
Forced                      : No

Text #6
ID                          : 13
Format                      : PGS
Muxing mode                 : zlib
Codec ID                    : S_HDMV/PGS
Codec ID/Info               : Picture based subtitle format used on BDs/HD-DVDs
Duration                    : 1 h 41 min
Bit rate                    : 41.4 kb/s
Count of elements           : 2818
Stream size                 : 30.1 MiB (0%)
Title                       : German-PGS
Language                    : German
Default                     : No
Forced                      : No

Menu
00:00:00.000                : en:Chapter 01
00:05:42.425                : en:Chapter 02
00:08:27.548                : en:Chapter 03
00:15:01.233                : en:Chapter 04
00:16:29.488                : en:Chapter 05
00:21:24.950                : en:Chapter 06
00:25:45.085                : en:Chapter 07
00:29:08.747                : en:Chapter 08
00:33:44.856                : en:Chapter 09
00:40:27.049                : en:Chapter 10
00:44:37.758                : en:Chapter 11
00:47:42.150                : en:Chapter 12
00:53:04.347                : en:Chapter 13
00:55:27.073                : en:Chapter 14
01:02:36.544                : en:Chapter 15
01:09:57.359                : en:Chapter 16
01:13:48.215                : en:Chapter 17
01:19:26.470                : en:Chapter 18
01:24:27.979                : en:Chapter 19
01:31:17.096                : en:Chapter 20



Download: cornfile
http://cornfile.com/ekbh4xu8fz5i
Download: mekafile
http://www.mekafile.com/dl.php?f=164caec93c6e