+ ตอบกลับกระทู้
สรุปผลการค้นหา 1 ถึง 2 จากทั้งหมด 2
  1. #1
    Administrators รูปส่วนตัว Duckload.us
    สมัครเมื่อ
    Dec 2010
    โพสต์
    114,506
    Thanks
    7
    Thanked 120,825 Times in 54,326 Posts

    Question [ฝรั่ง]-(จุดจบที่ยิ่งใหญ่ Endgame แห่งจักรวาล DC !) Justice League Dark: Apokolips War | WEB-DL.H.264.720p. [rip from Master]-[Soundtrack บรรยายไทย (แปล)]



    เมื่อโลกกำลังตกเป็นเป้า เหล่าฮีโร่แห่งจัสติซลีกจึงต้องชิงจู่โจมไปยังถิ่นฐา นของผู้รุกราน และภัยคุกคามนาม ดาร์คไซด์

    Format : Matroska
    Format version : Version 4
    File size : 796 MiB
    Duration : 1 h 30 min
    Overall bit rate : 1 235 kb/s
    Movie name : GalaxyRG - Justice.League.Dark.Apokolips.War.2020.720p.WEBRip .800MB.x264-GalaxyRG
    Encoded date : UTC 2020-05-16 03:01:10
    Writing application : mkvmerge v46.0.0 ('No Deeper Escape') 64-bit
    Writing library : libebml v1.3.10 + libmatroska v1.5.2 / Lavf58.20.100
    Comment : GalaxyRG - Justice.League.Dark.Apokolips.War.2020.720p.WEBRip .800MB.x264-GalaxyRG

    Video
    ID : 1
    Format : AVC
    Format/Info : Advanced Video Codec
    Format profile : [email protected]
    Format settings : CABAC / 4 Ref Frames
    Format settings, CABAC : Yes
    Format settings, Reference frames : 4 frames
    Codec ID : V_MPEG4/ISO/AVC
    Duration : 1 h 30 min
    Bit rate : 1 136 kb/s
    Width : 1 280 pixels
    Height : 720 pixels
    Display aspect ratio : 16:9
    Frame rate mode : Variable
    Frame rate : 23.976 FPS
    Color space : YUV
    Chroma subsampling : 4:2:0
    Bit depth : 8 bits
    Scan type : Progressive
    Bits/(Pixel*Frame) : 0.051
    Stream size : 732 MiB (92%)
    Title : GalaxyRG - Justice.League.Dark.Apokolips.War.2020.720p.WEBRip .800MB.x264-GalaxyRG
    Writing library : x264 core 157
    Encoding settings : cabac=1 / ref=2 / deblock=1:0:0 / analyse=0x3:0x113 / me=hex / subme=4 / psy=1 / psy_rd=1.00:0.00 / mixed_ref=0 / me_range=16 / chroma_me=1 / trellis=1 / 8x8dct=1 / cqm=0 / deadzone=21,11 / fast_pskip=1 / chroma_qp_offset=0 / threads=12 / lookahead_threads=3 / sliced_threads=0 / nr=0 / decimate=1 / interlaced=0 / bluray_compat=0 / constrained_intra=0 / bframes=3 / b_pyramid=2 / b_adapt=1 / b_bias=0 / direct=1 / weightb=1 / open_gop=0 / weightp=1 / keyint=250 / keyint_min=23 / scenecut=40 / intra_refresh=0 / rc_lookahead=20 / rc=2pass / mbtree=1 / bitrate=1136 / ratetol=1.0 / qcomp=0.60 / qpmin=0 / qpmax=69 / qpstep=4 / cplxblur=20.0 / qblur=0.5 / ip_ratio=1.40 / aq=1:1.00
    Default : Yes
    Forced : No

    Audio
    ID : 2
    Format : AAC LC
    Format/Info : Advanced Audio Codec Low Complexity
    Codec ID : A_AAC-2
    Duration : 1 h 30 min
    Bit rate : 96.0 kb/s
    Channel(s) : 2 channels
    Channel layout : L R
    Sampling rate : 48.0 kHz
    Frame rate : 46.875 FPS (1024 SPF)
    Compression mode : Lossy
    Stream size : 62.2 MiB (8%)
    Title : GalaxyRG - Justice.League.Dark.Apokolips.War.2020.720p.WEBRip .800MB.x264-GalaxyRG
    Writing library : Lavc58.35.100 aac
    Language : English
    Default : Yes
    Forced : No

    Text #1
    ID : 3
    Format : UTF-8
    Codec ID : S_TEXT/UTF8
    Codec ID/Info : UTF-8 Plain Text
    Duration : 1 h 26 min
    Bit rate : 45 b/s
    Count of elements : 1093
    Stream size : 28.5 KiB (0%)
    Language : English
    Default : No
    Forced : No

    Text #2
    ID : 4
    Format : ASS
    Codec ID : S_TEXT/ASS
    Codec ID/Info : Advanced Sub Station Alpha
    Duration : 1 h 26 min
    Bit rate : 152 b/s
    Count of elements : 1106
    Compression mode : Lossless
    Stream size : 96.5 KiB (0%)
    Language : Thai
    Default : Yes
    Forced : Yes






    Download: cornfile
    http://cornfile.com/e6v5u55jgfp5
    Download: mekafile
    http://www.mekafile.com/dl.php?f=Olad66c93uIF

  2. The Following User Says Thank You to Duckload.us For This Useful Post:

    gaszolineskywalker (05-17-2020)

  3. #2
    Senior Member
    สมัครเมื่อ
    Oct 2012
    โพสต์
    1,011
    Thanks
    1,954
    Thanked 0 Times in 0 Posts
    ขอบคุณครับ

+ ตอบกลับกระทู้

ข้อมูลกระทู้

Users Browsing this Thread

ในขณะนี้มี 1 ท่านดูกระทู้อยู่. (0 สมาชิกและ 1 ผู้เยี่ยมชม)

     

กฎการโพสต์ข้อความ

  • ท่าน ไม่สามารถ ตั้งกระทู้ใหม่ได้
  • ท่าน ไม่สามารถ ตอบกระทู้ได้
  • ท่าน ไม่สามารถ แนบไฟล์ได้
  • ท่าน ไม่สามารถ แก้ไขข้อความโพสต์ได้
  • BB code สถานะ เปิด
  • Smilies สถานะ เปิด
  • [IMG] สถานะ เปิด
  • HTML สถานะ ปิด