+ ตอบกลับกระทู้
สรุปผลการค้นหา 1 ถึง 2 จากทั้งหมด 2
  1. #1
    Administrators รูปส่วนตัว Duckload.us
    สมัครเมื่อ
    Dec 2010
    โพสต์
    115,803
    Thanks
    7
    Thanked 122,243 Times in 54,846 Posts

    Lightbulb [เกาหลี]-Rich Man ไฮโซขี้ลืมกับยัยขี้จำ Episodes: 01-16 Complete [ Audio = Thai & Kor ] [ Subtitles = THAI srt -WEB-DL.H.264.1080p. [Hi-def rip from Master]-[พากย์ไทย บรรยายไทย]



    Drama: Rich Man
    Revised romanization: Richimaen
    Hangul: &47532 &52824 &47592
    Director: Min Doo-Sik
    Writer: Hwang Jo-Yoon, Park Jung-Ye
    Network: MBN, Dramax
    Episodes: 16
    Release Date: May 9 - June 28, 2018
    Runtime: Wed. & Thu. 23:00
    Language: Korean
    Country: South Korea

    Rich Man ไฮโซขี้ลืมกับยัยขี้จำ
    ทุกวันพุธ-พฤหัสบดี เวลา 20.15น.

    คนหนึ่งขี้ลืม คนหนึ่งขี้จำ คนหนึ่งจำหน้าคนไม่ได้ คนหนึ่งมีหน้าที่จำ จำ และ จำ เมื่อทั้งสองมาเจอกัน ความวุ่นวายจึงบังเกิด


    เรื่องย่อ


    ซีรีส์ Rich Man ไฮโซขี้ลืมกับยัยขี้จำ ซีรีส์เกาหลีแนวโรแมนติกคอมเมดี้ เรื่องราวของชายหนุ่มที่จำใบหน้าของคนไม่ได้กับหญิงส าวที่ไม่มีวันลืม อียูชาน (ซูโฮ) เป็นผู้ก่อตั้งและ CEO ของ บริษัท ไอที Next One ที่ที่ใครก็อยากเข้ามาทำงาน เขาต้องทนทุกข์ทรมานจากอาการจำหน้าคนไม่ได้ทำให้เขาก ลายเป็นคนเก็บตัวและไม่ไว้ใจใคร ในขณะที่ คิมโบรา (ฮายอนซู) คือความภาคภูมิใจของผู้คนในเกาะเชจู บ้านเกิดของเธอ เธอเดินทางมายังโซลเพื่อเข้าเรียนในมหาวิทยาลัย ความฝันของเธอคือการทำงานใน Next One เมื่อคิมโบรามาพบอียูชาน ชีวิตของพวกเขาทั้งสองจะเปลี่ยนแปลงไปในทางที่ไมมีใค รคาดฝัน พร้อมกับเรื่องราววุ่นวายที่เกิดขึ้นได้ทุกเวลาเมื่อ ทั้งสองได้มาเจอกัน



    Audio #1
    ID : 2
    Format : AC-3
    Format/Info : Audio Coding 3
    Commercial name : Dolby Digital
    Codec ID : A_AC3
    Duration : 1 h 4 min
    Bit rate mode : Constant
    Bit rate : 160 kb/s
    Channel(s) : 2 channels
    Channel layout : L R
    Sampling rate : 44.1 kHz
    Frame rate : 28.711 FPS (1536 SPF)
    Compression mode : Lossy
    Stream size : 74.1 MiB (7%)
    Language : Thai
    Service kind : Complete Main
    Default : Yes
    Forced : No

    Audio #2
    ID : 3
    Format : AC-3
    Format/Info : Audio Coding 3
    Commercial name : Dolby Digital
    Codec ID : A_AC3
    Duration : 1 h 4 min
    Bit rate mode : Constant
    Bit rate : 160 kb/s
    Channel(s) : 2 channels
    Channel layout : L R
    Sampling rate : 44.1 kHz
    Frame rate : 28.711 FPS (1536 SPF)
    Compression mode : Lossy
    Stream size : 74.1 MiB (7%)
    Language : Korean
    Service kind : Complete Main
    Default : No
    Forced : No

    Text
    ID : 4
    Format : UTF-8
    Codec ID : S_TEXT/UTF8
    Codec ID/Info : UTF-8 Plain Text
    Duration : 1 h 3 min
    Bit rate : 102 b/s
    Count of elements : 748
    Stream size : 47.9 KiB (0%)
    Title : Thai SRT
    Language : Thai
    Default : No
    Forced : No



    1
    http://www.filecondo.com/dl.php?f=4a89551JAIOe
    2
    http://www.filecondo.com/dl.php?f=w2fcbe1JAIPb
    3
    http://www.filecondo.com/dl.php?f=ca47ca1JAIQa
    4
    http://www.filecondo.com/dl.php?f=Qfdb951JAIR6
    5
    http://www.filecondo.com/dl.php?f=ha0c211JAIS5
    6
    http://www.filecondo.com/dl.php?f=vc347e1JAIT3
    7
    http://www.filecondo.com/dl.php?f=U6b02c1JAIU2
    8
    http://www.filecondo.com/dl.php?f=l1c28f1JAIUX
    9
    http://www.filecondo.com/dl.php?f=y38f6e1JAIVX
    10
    http://www.filecondo.com/dl.php?f=Xbb73b1JAIWU
    11
    http://www.filecondo.com/dl.php?f=e953ac1JAIXT
    12
    http://www.filecondo.com/dl.php?f=g227ad1JAIYQ
    13
    http://www.filecondo.com/dl.php?f=73250a1JAIZO
    14
    http://www.filecondo.com/dl.php?f=uda59f1JAJ0M
    15
    http://www.filecondo.com/dl.php?f=fea8da1JAJ1K
    16
    http://www.filecondo.com/dl.php?f=g0796a1JAJ2I

  2. #2
    Senior Member
    สมัครเมื่อ
    Jul 2013
    โพสต์
    708
    Thanks
    0
    Thanked 0 Times in 0 Posts
    ขอบคุณครับ

+ ตอบกลับกระทู้

ข้อมูลกระทู้

Users Browsing this Thread

ในขณะนี้มี 1 ท่านดูกระทู้อยู่. (0 สมาชิกและ 1 ผู้เยี่ยมชม)

     

กฎการโพสต์ข้อความ

  • ท่าน ไม่สามารถ ตั้งกระทู้ใหม่ได้
  • ท่าน ไม่สามารถ ตอบกระทู้ได้
  • ท่าน ไม่สามารถ แนบไฟล์ได้
  • ท่าน ไม่สามารถ แก้ไขข้อความโพสต์ได้
  • BB code สถานะ เปิด
  • Smilies สถานะ เปิด
  • [IMG] สถานะ เปิด
  • HTML สถานะ ปิด