+ ตอบกลับกระทู้
สรุปผลการค้นหา 1 ถึง 2 จากทั้งหมด 2
  1. #1
    Administrators รูปส่วนตัว Duckload.us
    สมัครเมื่อ
    Dec 2010
    โพสต์
    114,507
    Thanks
    7
    Thanked 120,826 Times in 54,326 Posts

    Question [ฝรั่ง]-[x-TaR] Casino Royale (2006) [พากย์ไทย + อังกฤษ] • [บรรยายไทย + อังกฤษ]-4K Blu-ray.DTS.2160p. [Master]-[พากย์ไทย บรรยายไทย]



    General
    Unique ID : 34266094088272731968708616262033781786 (0x19C768E003891E693DB474025996B41A)
    Format : Matroska
    Format version : Version 4 / Version 2
    File size : 19.8 GiB
    Duration : 2 h 24 min
    Overall bit rate : 19.6 Mb/s
    Movie name : Casino Royale (2006)
    Encoded date : UTC 2020-05-18 05:22:22
    Writing application : mkvmerge v46.0.0 ('No Deeper Escape') 64-bit
    Writing library : libebml v1.3.10 + libmatroska v1.5.2

    Video
    ID : 1
    Format : HEVC
    Format/Info : High Efficiency Video Coding
    Format profile : Main [email protected]@Main
    Codec ID : V_MPEGH/ISO/HEVC
    Duration : 2 h 24 min
    Bit rate : 14.9 Mb/s
    Width : 3 840 pixels
    Height : 1 600 pixels
    Original height : 2 160 pixels
    Display aspect ratio : 16:9
    Frame rate mode : Constant
    Frame rate : 23.976 (24000/1001) FPS
    Original frame rate : 23.976 (23976/1000) FPS
    Color space : YUV
    Chroma subsampling : 4:2:0
    Bit depth : 10 bits
    Bits/(Pixel*Frame) : 0.101
    Stream size : 15.1 GiB (76%)
    Title : Casino Royale (2006)
    Default : Yes
    Forced : No
    Color range : Limited
    Color primaries : BT.709
    Transfer characteristics : BT.709
    Matrix coefficients : BT.709

    Audio #1
    ID : 2
    Format : DTS
    Format/Info : Digital Theater Systems
    Mode : 16
    Format settings, Endianness : Big
    Codec ID : A_DTS
    Duration : 2 h 24 min
    Bit rate mode : Constant
    Bit rate : 768 kb/s
    Channel(s) : 6 channels
    Channel positions : Front: L C R, Side: L R, LFE
    Sampling rate : 48.0 kHz
    Frame rate : 93.750 FPS (512 SPF)
    Bit depth : 24 bits
    Compression mode : Lossy
    Delay relative to video : 3 ms
    Stream size : 794 MiB (4%)
    Title : Thai DTS
    Language : Thai
    Default : Yes
    Forced : Yes

    Audio #2
    ID : 3
    Format : DTS
    Format/Info : Digital Theater Systems
    Format profile : MA / Core
    Mode : 16
    Format settings, Endianness : Big
    Codec ID : A_DTS
    Duration : 2 h 24 min
    Bit rate mode : Variable / Constant
    Bit rate : 3 840 kb/s / 768 kb/s
    Channel(s) : 6 channels
    Channel positions : Front: L C R, Side: L R, LFE
    Sampling rate : 48.0 kHz
    Frame rate : 93.750 FPS (512 SPF)
    Bit depth : 24 bits
    Compression mode : Lossless / Lossy
    Delay relative to video : 6 ms
    Stream size : 3.92 GiB (20%)
    Title : English DTS
    Language : English
    Default : No
    Forced : No

    Text #1
    ID : 4
    Format : VobSub
    Muxing mode : zlib
    Codec ID : S_VOBSUB
    Codec ID/Info : Picture based subtitle format used on DVDs
    Duration : 2 h 23 min
    Bit rate : 4 589 b/s
    Count of elements : 1078
    Stream size : 4.72 MiB (0%)
    Title : Thai VOB
    Language : Thai
    Default : No
    Forced : No

    Text #2
    ID : 5
    Format : PGS
    Muxing mode : zlib
    Codec ID : S_HDMV/PGS
    Codec ID/Info : Picture based subtitle format used on BDs/HD-DVDs
    Duration : 2 h 23 min
    Bit rate : 20.1 kb/s
    Count of elements : 2156
    Stream size : 20.7 MiB (0%)
    Title : Thai PGS
    Language : Thai
    Default : No
    Forced : No

    Text #3
    ID : 6
    Format : PGS
    Muxing mode : zlib
    Codec ID : S_HDMV/PGS
    Codec ID/Info : Picture based subtitle format used on BDs/HD-DVDs
    Duration : 2 h 23 min
    Bit rate : 20.1 kb/s
    Count of elements : 2084
    Stream size : 20.6 MiB (0%)
    Title : English PGS
    Language : English
    Default : No
    Forced : No

    Text #4
    ID : 7
    Format : UTF-8
    Codec ID : S_TEXT/UTF8
    Codec ID/Info : UTF-8 Plain Text
    Duration : 2 h 23 min
    Bit rate : 37 b/s
    Count of elements : 1273
    Stream size : 38.8 KiB (0%)
    Title : English SRT
    Language : English
    Default : No
    Forced : No

    Text #5
    ID : 8
    Format : PGS
    Muxing mode : zlib
    Codec ID : S_HDMV/PGS
    Codec ID/Info : Picture based subtitle format used on BDs/HD-DVDs
    Duration : 2 h 23 min
    Bit rate : 13.2 kb/s
    Count of elements : 1900
    Stream size : 13.5 MiB (0%)
    Title : Japanese PGS
    Language : Japanese
    Default : No
    Forced : No

    Menu
    00:00:00.000 : en:Chapter 01
    00:09:37.285 : en:Chapter 02
    00:19:30.503 : en:Chapter 03
    00:25:35.325 : en:Chapter 04
    00:35:18.241 : en:Chapter 05
    00:39:58.855 : en:Chapter 06
    00:45:21.761 : en:Chapter 07
    00:57:50.384 : en:Chapter 08
    01:07:21.621 : en:Chapter 09
    01:17:11.377 : en:Chapter 10
    01:30:05.400 : en:Chapter 11
    01:38:40.498 : en:Chapter 12
    01:43:28.953 : en:Chapter 13
    01:54:02.377 : en:Chapter 14
    02:05:44.704 : en:Chapter 15
    02:13:19.033 : en:Chapter 16



    Download: cornfile
    http://cornfile.com/vzju7zziatb7
    Download: mekafile
    http://www.mekafile.com/dl.php?f=sd57f6c9b6h4

  2. #2
    Senior Member
    สมัครเมื่อ
    Jun 2014
    โพสต์
    3,811
    Thanks
    0
    Thanked 0 Times in 0 Posts
    ขอบคุณครับ

+ ตอบกลับกระทู้

ข้อมูลกระทู้

Users Browsing this Thread

ในขณะนี้มี 1 ท่านดูกระทู้อยู่. (0 สมาชิกและ 1 ผู้เยี่ยมชม)

     

กฎการโพสต์ข้อความ

  • ท่าน ไม่สามารถ ตั้งกระทู้ใหม่ได้
  • ท่าน ไม่สามารถ ตอบกระทู้ได้
  • ท่าน ไม่สามารถ แนบไฟล์ได้
  • ท่าน ไม่สามารถ แก้ไขข้อความโพสต์ได้
  • BB code สถานะ เปิด
  • Smilies สถานะ เปิด
  • [IMG] สถานะ เปิด
  • HTML สถานะ ปิด