+ ตอบกลับกระทู้
สรุปผลการค้นหา 1 ถึง 2 จากทั้งหมด 2
  1. #1
    Administrators รูปส่วนตัว Duckload.us
    สมัครเมื่อ
    Dec 2010
    โพสต์
    116,002
    Thanks
    7
    Thanked 122,421 Times in 54,919 Posts

    Question [ฝรั่ง] • The Invisible Man (2020) มนุษย์ล่องหน • [เสียงอังกฤษ DTS 5.1] • [บรรยายไทย + อังกฤษ + Srt,PGS คมชัด] • [From Blu-Ray Master 1080p]


    wrote:
    เรื่องย่อ

    The Invisible Man (2020) ดัดแปลงมาจากนิยายไซไฟ-สยองขวัญเรื่อง มนุษย์ล่องหน ที่ตีพิมพ์ในปี 1897 ของ เอช.จี.เวลส์ เล่าเรื่องผ่านตัวละคร เซซิเลีย แคส (อลิซาเบธ มอสส์) ภรรยาผู้หวาดกลัว และถูก เอเดรียน กริฟฟิน (โอลิเวอร์ แจ็คสัน-โคเฮน) สามีนักธุรกิจและนักประดิษฐ์เทคโนโลยีด้านภาพและการม องเห็นทำร้ายร่างกายอยู่ตลอดเวลา กระทั่งวันหนึ่งมีข่าวว่าสามีของเธอฆ่าตัวตาย เธอกลายเป็นผู้รับพินัยกรรมและสมบัติมหาศาลทั้งหมด แต่ก็นำมาซึ่งเหตุผลประหลาดที่ทำให้เธอรู้สึกว่ามีใค รคนหนึ่งที่ ‘มองไม่เห็น’ จับตามองดูเธออยู่ตลอดเวลา



    Format : Matroska
    Format version : Version 4
    File size : 11.3 GiB
    Duration : 2 h 4 min
    Overall bit rate : 13.0 Mb/s
    Movie name : จัดทำโดย Beer
    Encoded date : UTC 2020-05-22 12:10:08
    Writing application : mkvmerge v46.0.0 ('No Deeper Escape') 64-bit
    Writing library : libebml v1.3.10 + libmatroska v1.5.2
    Cover : Yes
    Attachments : cover_land.jpg / small_cover.jpg / small_cover_land.jpg / cover.jpg

    Video
    ID : 1
    Format : AVC
    Format/Info : Advanced Video Codec
    Format profile : [email protected]
    Format settings : CABAC / 4 Ref Frames
    Format settings, CABAC : Yes
    Format settings, Reference fra : 4 frames
    Codec ID : V_MPEG4/ISO/AVC
    Duration : 2 h 4 min
    Bit rate : 11.5 Mb/s
    Width : 1 920 pixels
    Height : 804 pixels
    Display aspect ratio : 2.40:1
    Frame rate mode : Constant
    Frame rate : 23.976 (24000/1001) FPS
    Color space : YUV
    Chroma subsampling : 4:2:0
    Bit depth : 8 bits
    Scan type : Progressive
    Bits/(Pixel*Frame) : 0.311
    Stream size : 9.99 GiB (88%)
    Writing library : x264 core 148 r2748 97eaef2
    Encoding settings : cabac=1 / ref=4 / deblock=1:-2:-2 / analyse=0x3:0x113 / me=umh / subme=9 / psy=1 / psy_rd=1.00:0.15 / mixed_ref=1 / me_range=16 / chroma_me=1 / trellis=2 / 8x8dct=1 / cqm=0 / deadzone=21,11 / fast_pskip=1 / chroma_qp_offset=-3 / threads=72 / lookahead_threads=3 / sliced_threads=0 / nr=0 / decimate=1 / interlaced=0 / bluray_compat=0 / constrained_intra=0 / bframes=3 / b_pyramid=2 / b_adapt=1 / b_bias=0 / direct=3 / weightb=1 / open_gop=0 / weightp=2 / keyint=250 / keyint_min=25 / scenecut=40 / intra_refresh=0 / rc_lookahead=50 / rc=2pass / mbtree=1 / bitrate=11500 / ratetol=1.0 / qcomp=0.60 / qpmin=0 / qpmax=69 / qpstep=4 / cplxblur=20.0 / qblur=0.5 / vbv_maxrate=31250 / vbv_bufsize=31250 / nal_hrd=none / filler=0 / ip_ratio=1.40 / aq=1:1.00
    Language : English
    Default : Yes
    Forced : No

    Audio
    ID : 2
    Format : DTS
    Format/Info : Digital Theater Systems
    Codec ID : A_DTS
    Duration : 2 h 4 min
    Bit rate mode : Constant
    Bit rate : 1 509 kb/s
    Channel(s) : 6 channels
    Channel layout : C L R Ls Rs LFE
    Sampling rate : 48.0 kHz
    Frame rate : 93.750 FPS (512 SPF)
    Bit depth : 24 bits
    Compression mode : Lossy
    Stream size : 1.31 GiB (12%)
    Language : English
    Default : Yes
    Forced : No

    Text #1
    ID : 3
    Format : PGS
    Muxing mode : zlib
    Codec ID : S_HDMV/PGS
    Codec ID/Info : Picture based subtitle format used on BDs/HD-DVDs
    Duration : 1 h 55 min
    Bit rate : 23.8 kb/s
    Count of elements : 1704
    Stream size : 19.6 MiB (0%)
    Title : Thai PGS
    Language : Thai
    Default : Yes
    Forced : No

    Text #2
    ID : 4
    Format : PGS
    Muxing mode : zlib
    Codec ID : S_HDMV/PGS
    Codec ID/Info : Picture based subtitle format used on BDs/HD-DVDs
    Duration : 1 h 55 min
    Bit rate : 23.8 kb/s
    Count of elements : 1704
    Stream size : 19.6 MiB (0%)
    Title : Thai PGS Out
    Language : Thai
    Default : No
    Forced : No

    Text #3
    ID : 5
    Format : UTF-8
    Codec ID : S_TEXT/UTF8
    Codec ID/Info : UTF-8 Plain Text
    Duration : 1 h 55 min
    Bit rate : 70 b/s
    Count of elements : 852
    Stream size : 59.2 KiB (0%)
    Title : Thai Srt
    Language : Thai
    Default : No
    Forced : No

    Text #4
    ID : 6
    Format : UTF-8
    Codec ID : S_TEXT/UTF8
    Codec ID/Info : UTF-8 Plain Text
    Duration : 1 h 49 min
    Bit rate : 31 b/s
    Count of elements : 863
    Stream size : 25.5 KiB (0%)
    Title : Eng Srt
    Language : English
    Default : No
    Forced : No

    Text #5
    ID : 7
    Format : UTF-8
    Codec ID : S_TEXT/UTF8
    Codec ID/Info : UTF-8 Plain Text
    Duration : 1 h 50 min
    Bit rate : 35 b/s
    Count of elements : 1045
    Stream size : 28.9 KiB (0%)
    Title : SDH
    Language : English
    Default : No
    Forced : No

    Menu
    00:00:00.000 : en:Chapter 01
    00:11:05.456 : en:Chapter 02
    00:16:08.968 : en:Chapter 03
    00:19:16.321 : en:Chapter 04
    00:25:27.651 : en:Chapter 05
    00:35:52.233 : en:Chapter 06
    00:39:50.179 : en:Chapter 07
    00:46:35.459 : en:Chapter 08
    00:52:41.867 : en:Chapter 09
    01:01:22.011 : en:Chapter 10
    01:08:59.802 : en:Chapter 11
    01:14:49.735 : en:Chapter 12
    01:19:23.925 : en:Chapter 13
    01:24:46.539 : en:Chapter 14
    01:30:25.336 : en:Chapter 15
    01:35:24.927 : en:Chapter 16
    01:39:33.342 : en:Chapter 17
    01:43:04.178 : en:Chapter 18
    01:48:54.694 : en:Chapter 19
    01:53:38.603 : en:Chapter 20

    wrote:
    ภาพตัวอย่าง SS





    http://cornfile.com/ai6h3mftyrnc
    http://www.mekafile.com/dl.php?f=yt876ec9noZe

  2. The Following User Says Thank You to Duckload.us For This Useful Post:

    agg001 (05-24-2020)

  3. #2
    Senior Member
    สมัครเมื่อ
    Jun 2014
    โพสต์
    4,088
    Thanks
    0
    Thanked 0 Times in 0 Posts
    ขอบคุณครับ

+ ตอบกลับกระทู้

ข้อมูลกระทู้

Users Browsing this Thread

ในขณะนี้มี 1 ท่านดูกระทู้อยู่. (0 สมาชิกและ 1 ผู้เยี่ยมชม)

     

กฎการโพสต์ข้อความ

  • ท่าน ไม่สามารถ ตั้งกระทู้ใหม่ได้
  • ท่าน ไม่สามารถ ตอบกระทู้ได้
  • ท่าน ไม่สามารถ แนบไฟล์ได้
  • ท่าน ไม่สามารถ แก้ไขข้อความโพสต์ได้
  • BB code สถานะ เปิด
  • Smilies สถานะ เปิด
  • [IMG] สถานะ เปิด
  • HTML สถานะ ปิด