เซซิเลีย แคสส์ (เอลิซาเบธ มอสส์) คือหญิงสาวที่มีความสัมพันธ์กับนักวิทยาศาสตร์ที่ทั้ งร่ำรวยและฉลาดล้ำเลิศ แต่ความสัมพันธ์นี้มีทั้งความรุนแรงและเธอเป็นฝ่ายที ่ถูกควบคุม ในคืนอันเงียบสงัด เธอจึงหนีออกมาและหลบซ่อนตัวตัวได้รับความช่วยเหลือจ ากน้องสาว (แฮร์เรียต ไดเออร์ จาก In Between) เพื่อนสมัยเด็ก (อัลดิส ฮอดจ์ จาก Straight Outta Compton) ลูกสาววัยรุ่นของเขา (สตอร์ม รีด จาก Euphoria)

เมื่อแฟนเก่าสุดเลวทรามของเซซิเลีย (โอลิเวอร์ แจ็คสัน-โคเฮน จาก The Haunting of Hill House) ตัดสินใจฆ่าตัวตาย และทิ้งทรัพย์สมบัติจำนวนมากให้เธอ เซซิเลีย สงสัยว่าการตายของเขาเป็นเรื่องหลอกลวง ในขณะที่เหตุการณ์อันน่าขนลุกกลายเป็นเรื่องคอขาดบาด ตาย เกิดการขู่เอาชีวิตของบุคคลที่เธอรัก สติของเซซิเลียเริ่มปลดปล่อย เธอพยายามพิสูจน์ว่าเธอถูกไล่ล่าจากใครบางคนที่ไม่มี ใครเห็น


Duration : 2 h 4 min
Overall bit rate : 5 422 kb/s
Encoded date : UTC 2020-05-20 13:47:45
Writing application : mkvmerge v46.0.0 ('No Deeper Escape') 64-bit
Writing library : libebml v1.3.10 + libmatroska v1.5.2
Cover : Yes
Attachments : cover

Video
ID : 1
Format : HEVC
Format/Info : High Efficiency Video Coding
Format profile : Main [email protected]@Main
HDR format : SMPTE ST 2086, HDR10 compatible
Codec ID : V_MPEGH/ISO/HEVC
Duration : 2 h 4 min
Bit rate : 4 896 kb/s
Width : 3 840 pixels
Height : 2 160 pixels
Display aspect ratio : 16:9
Frame rate mode : Constant
Frame rate : 23.976 (24000/1001) FPS
Color space : YUV
Chroma subsampling : 4:2:0
Bit depth : 10 bits
Bits/(Pixel*Frame) : 0.025
Stream size : 4.25 GiB (90%)
Language : English
Default : Yes
Forced : No
Color range : Limited
Color primaries : BT.2020
Transfer characteristics : PQ
Matrix coefficients : BT.2020 non-constant
Mastering display color pri : Display P3
Mastering display luminance : min: 0.0001 cd/m2, max: 1000 cd/m2
Maximum Content Light Level : 249 cd/m2
Maximum Frame-Average Light : 37 cd/m2

Audio
ID : 2
Format : AC-3
Format/Info : Audio Coding 3
Commercial name : Dolby Digital
Codec ID : A_AC3
Duration : 2 h 4 min
Bit rate mode : Constant
Bit rate : 448 kb/s
Channel(s) : 6 channels
Channel layout : L R C LFE Ls Rs
Sampling rate : 48.0 kHz
Frame rate : 31.250 FPS (1536 SPF)
Compression mode : Lossy
Stream size : 399 MiB (8%)
Language : English
Service kind : Complete Main
Default : No
Forced : No

Text #1
ID : 3
Format : PGS
Muxing mode : zlib
Codec ID : S_HDMV/PGS
Codec ID/Info : Picture based subtitle format used on BDs/HD-DVDs
Duration : 1 h 50 min
Bit rate : 24.4 kb/s
Count of elements : 2096
Stream size : 19.2 MiB (0%)
Title : English (SDH)
Language : English
Default : No
Forced : No

Text #2
ID : 4
Format : PGS
Muxing mode : zlib
Codec ID : S_HDMV/PGS
Codec ID/Info : Picture based subtitle format used on BDs/HD-DVDs
Duration : 2 h 4 min
Bit rate : 31.8 kb/s
Count of elements : 2832
Stream size : 28.2 MiB (1%)
Title : Gray
Language : English
Default : No
Forced : No

Text #3
ID : 5
Format : PGS
Muxing mode : zlib
Codec ID : S_HDMV/PGS
Codec ID/Info : Picture based subtitle format used on BDs/HD-DVDs
Duration : 2 h 4 min
Bit rate : 31.8 kb/s
Count of elements : 2832
Stream size : 28.2 MiB (1%)
Title : White
Language : English
Default : No
Forced : No

Text #4
ID : 6
Format : PGS
Muxing mode : zlib
Codec ID : S_HDMV/PGS
Codec ID/Info : Picture based subtitle format used on BDs/HD-DVDs
Duration : 2 h 4 min
Bit rate : 31.8 kb/s
Count of elements : 2832
Stream size : 28.2 MiB (1%)
Title : Yellow
Language : English
Default : No
Forced : No

Text #5
ID : 7
Format : PGS
Muxing mode : zlib
Codec ID : S_HDMV/PGS
Codec ID/Info : Picture based subtitle format used on BDs/HD-DVDs
Duration : 2 h 3 min
Bit rate : 18.7 kb/s
Count of elements : 1704
Stream size : 16.5 MiB (0%)
Title : Gray
Language : Thai
Default : No
Forced : No

Text #6
ID : 8
Format : PGS
Muxing mode : zlib
Codec ID : S_HDMV/PGS
Codec ID/Info : Picture based subtitle format used on BDs/HD-DVDs
Duration : 2 h 3 min
Bit rate : 18.7 kb/s
Count of elements : 1704
Stream size : 16.5 MiB (0%)
Title : White
Language : Thai
Default : Yes
Forced : No

Text #7
ID : 9
Format : PGS
Muxing mode : zlib
Codec ID : S_HDMV/PGS
Codec ID/Info : Picture based subtitle format used on BDs/HD-DVDs
Duration : 2 h 3 min
Bit rate : 18.7 kb/s
Count of elements : 1704
Stream size : 16.5 MiB (0%)
Title : Yellow
Language : Thai
Default : No
Forced : No



http://cornfile.com/f4wx4mup76k2
http://www.mekafile.com/dl.php?f=1Z1165c9i1QP