ทอม ครูซ รับบท มาเวอริค นักบินผู้มีปมในอดีต เกี่ยวกับการเสียชีวิตของพ่อเขา ในการต่อสู้ซึ่งทำให้คนอื่นเสียชีวิตไปด้วย เนื่องจากความผิดพลาดของพ่อ และมันยังคงฝังตรึงในใจเขาอยู่อย่างนั้นเมื่อได้เข้า สู่ Top Gun Naval Flying School ที่นั่นเขาต้องต่อสู้กับทัศนคติของนักบินคนอื่น ๆ มาเวอริคต้องต่อสู้เพื่อให้ได้เป็นนักบินที่ยอดเยี่ย ม รวมถึงพิชิตใจ ชาร์ลี ครูสาวซึ่งเป็นพลเรือน


Duration : 1 h 49 min
Overall bit rate : 6 300 kb/s
Encoded date : UTC 2020-05-19 23:55:55
Writing application : mkvmerge v46.0.0 ('No Deeper Escape') 64-bit
Writing library : libebml v1.3.10 + libmatroska v1.5.2
Cover : Yes
Attachments : cover

Video
ID : 1
Format : HEVC
Format/Info : High Efficiency Video Coding
Format profile : Main [email protected]@Main
HDR format : SMPTE ST 2086, HDR10 compatible
Codec ID : V_MPEGH/ISO/HEVC
Duration : 1 h 49 min
Bit rate : 5 005 kb/s
Width : 3 840 pixels
Height : 2 160 pixels
Display aspect ratio : 16:9
Frame rate mode : Constant
Frame rate : 23.976 (24000/1001) FPS
Color space : YUV
Chroma subsampling : 4:2:0
Bit depth : 10 bits
Bits/(Pixel*Frame) : 0.025
Stream size : 3.83 GiB (79%)
Language : English
Default : Yes
Forced : No
Color range : Limited
Color primaries : BT.2020
Transfer characteristics : PQ
Matrix coefficients : BT.2020 non-constant
Mastering display color pri : Display P3
Mastering display luminance : min: 0.0050 cd/m2, max: 4000 cd/m2
Maximum Content Light Level : 1000 cd/m2
Maximum Frame-Average Light : 401 cd/m2

Audio #1
ID : 2
Format : AC-3
Format/Info : Audio Coding 3
Commercial name : Dolby Digital
Codec ID : A_AC3
Duration : 1 h 49 min
Bit rate mode : Constant
Bit rate : 640 kb/s
Channel(s) : 6 channels
Channel layout : L R C LFE Ls Rs
Sampling rate : 48.0 kHz
Frame rate : 31.250 FPS (1536 SPF)
Compression mode : Lossy
Stream size : 501 MiB (10%)
Language : English
Service kind : Complete Main
Default : No
Forced : No

Audio #2
ID : 3
Format : AC-3
Format/Info : Audio Coding 3
Commercial name : Dolby Digital
Codec ID : A_AC3
Duration : 1 h 49 min
Bit rate mode : Constant
Bit rate : 640 kb/s
Channel(s) : 6 channels
Channel layout : L R C LFE Ls Rs
Sampling rate : 48.0 kHz
Frame rate : 31.250 FPS (1536 SPF)
Compression mode : Lossy
Delay relative to video : 4 s 600 ms
Stream size : 502 MiB (10%)
Language : Thai
Service kind : Complete Main
Default : Yes
Forced : No

Text #1
ID : 4
Format : PGS
Muxing mode : zlib
Codec ID : S_HDMV/PGS
Codec ID/Info : Picture based subtitle format used on BDs/HD-DVDs
Duration : 1 h 40 min
Bit rate : 38.7 kb/s
Count of elements : 2782
Stream size : 27.8 MiB (1%)
Title : English
Language : English
Default : No
Forced : No

Text #2
ID : 5
Format : PGS
Muxing mode : zlib
Codec ID : S_HDMV/PGS
Codec ID/Info : Picture based subtitle format used on BDs/HD-DVDs
Duration : 1 h 42 min
Bit rate : 40.5 kb/s
Count of elements : 2998
Stream size : 29.8 MiB (1%)
Title : English (SDH)
Language : English
Default : Yes
Forced : No

Text #3
ID : 6
Format : PGS
Muxing mode : zlib
Codec ID : S_HDMV/PGS
Codec ID/Info : Picture based subtitle format used on BDs/HD-DVDs
Duration : 1 h 48 min
Bit rate : 28.3 kb/s
Count of elements : 2834
Stream size : 22.0 MiB (0%)
Title : Thai
Language : Thai
Default : No
Forced : No

Menu
00:00:00.000 : en:Flight Deck
00:02:45.290 : en:Bogies
00:12:50.353 : en:The Elite
00:19:08.689 : en:Target Rich Environment
00:25:45.419 : en:Callsign: Charlie
00:29:31.436 : enogfighting
00:39:12.392 : en:I Don't Date Students
00:48:04.465 : en:Falling
00:55:28.033 : en:The Need For Speed
01:01:32.772 : en:Take Me To Bed
01:04:04.507 : en:Flameout
01:13:42.960 : en:Keep Sending Him Up
01:21:14.828 : en:No Disgrace
01:27:09.891 : en:Migs Dead Ahead
01:34:23.992 : en:Wingman
01:42:03.784 : en:Choice Of Duty



http://cornfile.com/lngvdyouxawr
http://www.mekafile.com/dl.php?f=1K7f5ac9i1WV