+ ตอบกลับกระทู้
สรุปผลการค้นหา 1 ถึง 7 จากทั้งหมด 7
  1. #1
    Administrators รูปส่วนตัว Duckload.us
    สมัครเมื่อ
    Dec 2010
    โพสต์
    115,767
    Thanks
    7
    Thanked 122,118 Times in 54,818 Posts

    Question [จีน]-Detective Di Renjie (2020) พลิกแฟ้มคดีของตี๋เหรินเจี๋ย-WEB-DL.H.264.720p. [Master]-[พากย์ไทยมาสเตอร์ ไม่มีบรรยาย]



    เรื่องย่อ Detective Di Renjie (2020) พลิกแฟ้มคดีของตี๋เหรินเจี๋ย
    ในช่วงปีรัชศกอู่เจ๋อเทียน Detective Di Renjie นครหลวงฉากอันได้เกิดเหตุคดีสยองขวัญที่แปลกประหลาดข ึ้นอย่างต่อเนื่องหลายคดีเนื่องจากสาเหตุการตายของผู ้เคราะห์ร้ายไม่เป็ฯที่แน่ชัด ข่าวลือเกี่ยวกับภาพฝาผนังเฟยเทียนในหอจงเลี่ยฉือโบย บินออกมาฆ่าคนนั้นก็เริ่มหนาหูขึ้นเรื่อยๆ ชาวบ้านต่างก็พากันเชื่อว่าเป็นลางร้ายจากสวรรค์ ทำให้ผู้คนต่างก็หวาดผวาและตื่นตระหนก ตี๋เหรินเจี๋ยผู้มีชื่อเสียงในด้านการไขคดีสุดมหัศจร รย์และใต้เท้าเสินอู่จวินตู่เว่ยนามว่าเซี่ยเหยาหวนต ่างก็ได้รับคำสั่งให้

    Format : Matroska
    Format version : Version 2
    File size : 1.84 GiB
    Duration : 1 h 33 min
    Overall bit rate mode : Constant
    Overall bit rate : 2 825 kb/s
    Movie name : Detective Di Renjie พลิกแฟ้มคดีของตี๋เหรินเจี๋ย (2020)
    Encoded date : UTC 2020-06-03 03:00:24
    Writing application : DVDFab 11.0.3.1
    Writing library : libebml v1.3.4 + libmatroska v1.4.5

    Video
    ID : 1
    Format : AVC
    Format/Info : Advanced Video Codec
    Format profile : [email protected]
    Format settings : CABAC / 4 Ref Frames
    Format settings, CABAC : Yes
    Format settings, Reference frames : 4 frames
    Format settings, GOP : M=3, N=24
    Codec ID : V_MPEG4/ISO/AVC
    Duration : 1 h 33 min
    Bit rate mode : Constant
    Bit rate : 2 631 kb/s
    Nominal bit rate : 2 881 kb/s
    Width : 1 280 pixels
    Height : 544 pixels
    Display aspect ratio : 2.35:1
    Frame rate mode : Constant
    Frame rate : 24.000 FPS
    Color space : YUV
    Chroma subsampling : 4:2:0
    Bit depth : 8 bits
    Scan type : Progressive
    Bits/(Pixel*Frame) : 0.157
    Stream size : 1.71 GiB (93%)
    Default : Yes
    Forced : No
    Color range : Limited
    Color primaries : BT.709
    Transfer characteristics : BT.709
    Matrix coefficients : BT.709

    Audio
    ID : 2
    Format : AC-3
    Format/Info : Audio Coding 3
    Commercial name : Dolby Digital
    Codec ID : A_AC3
    Duration : 1 h 33 min
    Bit rate mode : Constant
    Bit rate : 192 kb/s
    Channel(s) : 2 channels
    Channel layout : L R
    Sampling rate : 48.0 kHz
    Frame rate : 31.250 FPS (1536 SPF)
    Bit depth : 16 bits
    Compression mode : Lossy
    Stream size : 128 MiB (7%)
    Service kind : Complete Main
    Default : Yes
    Forced : No





    Download: cornfile
    http://cornfile.com/p004xr8vtzhu
    Download: mekafile
    http://www.mekafile.com/dl.php?f=HR1a26c9OUhU

  2. The Following 5 Users Say Thank You to Duckload.us For This Useful Post:

    apichartdear (06-05-2020), gaszolineskywalker (06-08-2020), noi54 (06-04-2020), Tellmon (06-08-2020), Wesker_TOT (06-05-2020)

  3. #2
    Senior Member
    สมัครเมื่อ
    May 2014
    โพสต์
    432
    Thanks
    0
    Thanked 0 Times in 0 Posts
    Cornfile โหลดไม่ได้อ่ะครับท่าน ฝากเชคให้หน่อยครับ

  4. #3
    Senior Member
    สมัครเมื่อ
    Jul 2012
    โพสต์
    6,865
    Thanks
    0
    Thanked 0 Times in 0 Posts
    ขอบคุณมากจ้า

  5. #4
    Senior Member
    สมัครเมื่อ
    Dec 2013
    โพสต์
    2,120
    Thanks
    4,040
    Thanked 0 Times in 0 Posts
    ขอบคุณนะครับ...

  6. #5
    Senior Member
    สมัครเมื่อ
    Jun 2014
    โพสต์
    4,088
    Thanks
    0
    Thanked 0 Times in 0 Posts
    ขอบคุณครับ

  7. #6
    Senior Member
    สมัครเมื่อ
    Jul 2013
    โพสต์
    696
    Thanks
    0
    Thanked 0 Times in 0 Posts
    ขอบคุณครับ

  8. #7
    Senior Member
    สมัครเมื่อ
    Oct 2012
    โพสต์
    1,142
    Thanks
    2,077
    Thanked 0 Times in 0 Posts
    ขอบคุณครับ cornfile ดาวน์โหลดได้ปกติครับ

+ ตอบกลับกระทู้

ข้อมูลกระทู้

Users Browsing this Thread

ในขณะนี้มี 1 ท่านดูกระทู้อยู่. (0 สมาชิกและ 1 ผู้เยี่ยมชม)

     

กฎการโพสต์ข้อความ

  • ท่าน ไม่สามารถ ตั้งกระทู้ใหม่ได้
  • ท่าน ไม่สามารถ ตอบกระทู้ได้
  • ท่าน ไม่สามารถ แนบไฟล์ได้
  • ท่าน ไม่สามารถ แก้ไขข้อความโพสต์ได้
  • BB code สถานะ เปิด
  • Smilies สถานะ เปิด
  • [IMG] สถานะ เปิด
  • HTML สถานะ ปิด