Code:
  อเล็กซานเดอร์ มหาราชชาตินักรบ (อังกฤษ: Alexander) เป็นภาพยนตร์อิงประวัติศาสตร์ฟอร์มยักษ์ของฮอลลีวูด กำกับโดย โอลิเวอร์ สโตน ออกฉายในปี ค.ศ. 2004 นำแสดงโดย โคลิน ฟาร์เรล รับบท พระเจ้าอเล็กซานเดอร์มหาราช, วัล คิลเมอร์ รับบท พระเจ้าฟิลิปส์ที่ 2 แห่งมาซิโดเนีย, แองเจลินา โจลี รับบท พระนางโอลิมเปียส, จาเรด เลโท รับบท เฮฟีสเทียน, แอนโทนีย์ ฮอปกินส์ รับบท ปโตเลมี และยังมีนักแสดงร่วมคนอื่นๆอีกมากมาย

Alexander (2004) อเล็กซานเดอร์ มหาราชชาตินักรบ
เรท R  |   173 นาที  |  Action, Adventure, Biography, Drama, War
เข้าฉาย : 24 พฤศจิกายน 2547
ค่ายผู้ผลิต : Intermedia Films
ค่ายหนัง : WPM Film International
เว็บไซต์ : http://alexanderthemovie.warnerbros.com/flash/index.html
ภาษา : อังกฤษ, Thai
SubTitle : อังกฤษ, Thai



เรื่องย่อ :

         จะบอกเจ้าได้อย่างไรว่าความหนุ่มแน่นนั้นเป็นเช่นไร การฝันถึงสิ่งยิ่งใหญ่ และเชื่อมั่นว่า เมื่ออเล็กซานเดอร์จ้องตาเจ้า เจ้าจะทำได้ทุกอย่าง ทุกอย่าง! เมื่อเขาอยู่ตรงหน้า ด้วยแสงแห่งอพอลโล พวกเราเก่งกาจเสียยิ่งกว่าตัวเอง!- ปโตเลมี



General
Unique ID                      : 251064929144832760664904799225872188319
Complete name                  : Alexander (2004) Director's Cut อเล็กซานเดอร์ มหาราชชาตินักรบ [HEVC-X265].mkv
Format                         : Matroska
Format version                 : Version 4 / Version 2
File size                      : 10.8 GiB
Duration                       : 2 h 55 min
Overall bit rate               : 8 817 kb/s
Movie name                     : Alexander.2004.Directors.Cut.1080p.BluRay.HEVC.8bit.DD5.1.X265-P4TiP4T
Encoded date                   : UTC 2020-05-25 09:28:46 / UTC
Writing application            : mkvmerge v45.0.0 ('Heaven in Pennies') 64-bit
Writing library                : libebml v1.3.10 + libmatroska v1.5.2 / Lavf55.12.0
Cover                          : Yes
Attachments                    : cover

Video
ID                             : 1
Format                         : HEVC
Format/Info                    : High Efficiency Video Coding
Format profile                 : [email protected]@Main
Codec ID                       : V_MPEGH/ISO/HEVC
Duration                       : 2 h 55 min
Bit rate                       : 6 786 kb/s
Width                          : 1 920 pixels
Height                         : 796 pixels
Display aspect ratio           : 2.40:1
Frame rate mode                : Constant
Frame rate                     : 23.976 (24000/1001) FPS
Color space                    : YUV
Chroma subsampling             : 4:2:0
Bit depth                      : 8 bits
Bits/(Pixel*Frame)             : 0.185
Stream size                    : 8.33 GiB (77%)
Writing library                : x265 1.5:[Windows][GCC 4.9.0][64 bit]
Encoding settings              : wpp / ctu=32 / tu-intra-depth=123455
Default                        : Yes
Forced                         : No
Color range                    : Limited
Color primaries                : BT.709
Transfer characteristics       : BT.709
Matrix coefficients            : BT.709
Statistics Tags Issue          : mkvmerge v45.0.0 ('Heaven in Pennies') 64-bit 2020-05-25 09:28:46 / mkvmerge v45.0.0 ('Heaven in Pennies') 64-bit 2020-05-25 09:28:46 / UTC
FromStats_BitRate              : 6959205
FromStats_Duration             : 02:55:44.326000000
FromStats_FrameCount           : 252811
FromStats_StreamSize           : 9172516137

Audio #1
ID                             : 2
Format                         : AC-3
Format/Info                    : Audio Coding 3
Format settings, Endianness    : Big
Codec ID                       : A_AC3
Duration                       : 2 h 55 min
Bit rate mode                  : Constant
Bit rate                       : 448 kb/s
Channel(s)                     : 6 channels
Channel positions              : Front: L C R, Side: L R, LFE
Sampling rate                  : 48.0 kHz
Frame rate                     : 31.250 FPS (1536 SPF)
Bit depth                      : 16 bits
Compression mode               : Lossy
Delay relative to video        : -83 ms
Stream size                    : 563 MiB (5%)
Language                       : Italian
Service kind                   : Complete Main
Default                        : No
Forced                         : No
Statistics Tags Issue          : mkvmerge v45.0.0 ('Heaven in Pennies') 64-bit 2020-05-25 09:28:46 / mkvmerge v45.0.0 ('Heaven in Pennies') 64-bit 2020-05-25 09:28:46 / UTC
FromStats_BitRate              : 448000
FromStats_Duration             : 02:55:45.344000000
FromStats_FrameCount           : 329542
FromStats_StreamSize           : 590539264

Audio #2
ID                             : 3
Format                         : AC-3
Format/Info                    : Audio Coding 3
Format settings, Endianness    : Big
Codec ID                       : A_AC3
Duration                       : 2 h 55 min
Bit rate mode                  : Constant
Bit rate                       : 640 kb/s
Channel(s)                     : 6 channels
Channel positions              : Front: L C R, Side: L R, LFE
Sampling rate                  : 48.0 kHz
Frame rate                     : 31.250 FPS (1536 SPF)
Bit depth                      : 16 bits
Compression mode               : Lossy
Delay relative to video        : -83 ms
Stream size                    : 805 MiB (7%)
Language                       : English
Service kind                   : Complete Main
Default                        : No
Forced                         : No
Statistics Tags Issue          : mkvmerge v45.0.0 ('Heaven in Pennies') 64-bit 2020-05-25 09:28:46 / mkvmerge v45.0.0 ('Heaven in Pennies') 64-bit 2020-05-25 09:28:46 / UTC
FromStats_BitRate              : 640000
FromStats_Duration             : 02:55:45.344000000
FromStats_FrameCount           : 329542
FromStats_StreamSize           : 843627520

Audio #3
ID                             : 4
Format                         : AC-3
Format/Info                    : Audio Coding 3
Format settings, Endianness    : Big
Codec ID                       : A_AC3
Duration                       : 2 h 55 min
Bit rate mode                  : Constant
Bit rate                       : 384 kb/s
Channel(s)                     : 6 channels
Channel positions              : Front: L C R, Side: L R, LFE
Sampling rate                  : 48.0 kHz
Frame rate                     : 31.250 FPS (1536 SPF)
Bit depth                      : 16 bits
Compression mode               : Lossy
Delay relative to video        : -83 ms
Stream size                    : 483 MiB (4%)
Language                       : Thai
Service kind                   : Complete Main
Default                        : Yes
Forced                         : Yes
Statistics Tags Issue          : mkvmerge v45.0.0 ('Heaven in Pennies') 64-bit 2020-05-25 09:28:46 / mkvmerge v45.0.0 ('Heaven in Pennies') 64-bit 2020-05-25 09:28:46 / UTC
FromStats_BitRate              : 384000
FromStats_Duration             : 02:48:34.880000000
FromStats_FrameCount           : 316090
FromStats_StreamSize           : 485514240

Audio #4
ID                             : 5
Format                         : AC-3
Format/Info                    : Audio Coding 3
Format settings, Endianness    : Big
Codec ID                       : A_AC3
Duration                       : 2 h 55 min
Bit rate mode                  : Constant
Bit rate                       : 384 kb/s
Channel(s)                     : 2 channels
Channel positions              : Front: L R
Sampling rate                  : 48.0 kHz
Frame rate                     : 31.250 FPS (1536 SPF)
Bit depth                      : 16 bits
Compression mode               : Lossy
Delay relative to video        : -83 ms
Stream size                    : 483 MiB (4%)
Language                       : Thai
Service kind                   : Complete Main
Default                        : No
Forced                         : No
Statistics Tags Issue          : mkvmerge v45.0.0 ('Heaven in Pennies') 64-bit 2020-05-25 09:28:46 / mkvmerge v45.0.0 ('Heaven in Pennies') 64-bit 2020-05-25 09:28:46 / UTC
FromStats_BitRate              : 384000
FromStats_Duration             : 02:55:45.184000000
FromStats_FrameCount           : 329537
FromStats_StreamSize           : 506168832

Text #1
ID                             : 6
Format                         : ASS
Codec ID                       : S_TEXT/ASS
Codec ID/Info                  : Advanced Sub Station Alpha
Compression mode               : Lossless
Title                          : Forced
Language                       : Italian
Default                        : No
Forced                         : No
Statistics Tags Issue          : mkvmerge v45.0.0 ('Heaven in Pennies') 64-bit 2020-05-25 09:28:46 / mkvmerge v45.0.0 ('Heaven in Pennies') 64-bit 2020-05-25 09:28:46 / UTC
FromStats_BitRate              : 0
FromStats_Duration             : 02:53:35.486000000
FromStats_FrameCount           : 16
FromStats_StreamSize           : 675

Text #2
ID                             : 7
Format                         : ASS
Codec ID                       : S_TEXT/ASS
Codec ID/Info                  : Advanced Sub Station Alpha
Compression mode               : Lossless
Language                       : Italian
Default                        : No
Forced                         : No
Statistics Tags Issue          : mkvmerge v45.0.0 ('Heaven in Pennies') 64-bit 2020-05-25 09:28:46 / mkvmerge v45.0.0 ('Heaven in Pennies') 64-bit 2020-05-25 09:28:46 / UTC
FromStats_BitRate              : 88
FromStats_Duration             : 02:53:35.486000000
FromStats_FrameCount           : 1906
FromStats_StreamSize           : 115040

Text #3
ID                             : 8
Format                         : ASS
Codec ID                       : S_TEXT/ASS
Codec ID/Info                  : Advanced Sub Station Alpha
Compression mode               : Lossless
Language                       : English
Default                        : No
Forced                         : No
Statistics Tags Issue          : mkvmerge v45.0.0 ('Heaven in Pennies') 64-bit 2020-05-25 09:28:46 / mkvmerge v45.0.0 ('Heaven in Pennies') 64-bit 2020-05-25 09:28:46 / UTC
FromStats_BitRate              : 85
FromStats_Duration             : 02:53:10.795000000
FromStats_FrameCount           : 1896
FromStats_StreamSize           : 111523

Text #4
ID                             : 9
Format                         : UTF-8
Codec ID                       : S_TEXT/UTF8
Codec ID/Info                  : UTF-8 Plain Text
Language                       : Thai
Default                        : No
Forced                         : No
Statistics Tags Issue          : mkvmerge v45.0.0 ('Heaven in Pennies') 64-bit 2020-05-25 09:28:46 / mkvmerge v45.0.0 ('Heaven in Pennies') 64-bit 2020-05-25 09:28:46 / UTC
FromStats_BitRate              : 122
FromStats_Duration             : 02:45:41.174000000
FromStats_FrameCount           : 1846
FromStats_StreamSize           : 151709

Text #5
ID                             : 10
Format                         : PGS
Muxing mode                    : zlib
Codec ID                       : S_HDMV/PGS
Codec ID/Info                  : Picture based subtitle format used on BDs/HD-DVDs
Language                       : Thai
Default                        : Yes
Forced                         : Yes
Statistics Tags Issue          : mkvmerge v45.0.0 ('Heaven in Pennies') 64-bit 2020-05-25 09:28:46 / mkvmerge v45.0.0 ('Heaven in Pennies') 64-bit 2020-05-25 09:28:46 / UTC
FromStats_BitRate              : 37609
FromStats_Duration             : 02:45:41.174000000
FromStats_FrameCount           : 3692
FromStats_StreamSize           : 46735371
http://cornfile.com/n9hulrcnet23
http://www.mekafile.com/dl.php?f=5J67a1c9F5Ax