+ ตอบกลับกระทู้
สรุปผลการค้นหา 1 ถึง 4 จากทั้งหมด 4
  1. #1
    Administrators รูปส่วนตัว Duckload.us
    สมัครเมื่อ
    Dec 2010
    โพสต์
    115,928
    Thanks
    7
    Thanked 122,378 Times in 54,895 Posts

    Question [ใหม่!มาสเตอร์!][Super HQ] Fantasy Island (2020) เกาะสวรรค์ เกมนรก [1080p][เสียงไทยมาสเตอร์+อังกฤษ DTS][บรรยายไทย+อังกฤษ][From Blu-Ray Master+ซับ PGS คมชัด]



    Fantasy Island_(2020)
    เรื่องราวสุดระทึก เมื่อหญิงสาวคนหนึ่งได้รับเชิญให้ไปเยือนที่เกาะอันส วยงาม ที่นั่นมีที่พักสุดหรู งานปาร์ตี้สุดรื่นเริง
    แต่ความสยองเริ่มต้นขึ้น เมื่อมันได้นำความหายนะมายังผู้เยือนเกาะแต่ละคน และพวกเขาต้องหาทางรอดออกจากเกาะสวรรค์นี้ไปให้ได้!! !

    Code:
    Format                                   : Matroska
    Format version                           : Version 4
    File size                                : 3.57 GiB
    Duration                                 : 1 h 49 min
    Overall bit rate                         : 4 671 kb/s
    Movie name                               : ติดตามได้ที่ : https://onlystreammovies.blogspot.com
    Encoded date                             : UTC 2020-06-23 16:30:11
    Writing application                      : mkvmerge v40.0.0 ('Old Town Road + Pony') 32-bit
    Writing library                          : libebml v1.3.9 + libmatroska v1.5.2
    
    Video
    ID                                       : 1
    Format                                   : AVC
    Format/Info                              : Advanced Video Codec
    Format profile                           : [email protected]
    Format settings                          : CABAC / 4 Ref Frames
    Format settings, CABAC                   : Yes
    Format settings, Reference frames        : 4 frames
    Codec ID                                 : V_MPEG4/ISO/AVC
    Duration                                 : 1 h 49 min
    Bit rate                                 : 3 700 kb/s
    Width                                    : 1 920 pixels
    Height                                   : 804 pixels
    Display aspect ratio                     : 2.40:1
    Frame rate mode                          : Constant
    Frame rate                               : 23.976 (24000/1001) FPS
    Color space                              : YUV
    Chroma subsampling                       : 4:2:0
    Bit depth                                : 8 bits
    Scan type                                : Progressive
    Bits/(Pixel*Frame)                       : 0.100
    Stream size                              : 2.83 GiB (79%)
    Title                                    : {MINI Super-HQ}_Fantasy.Island.2020.1080p.BrRip.DTS.x264_onlystreammovies
    Writing library                          : x264 core 146 r2538 121396c
    Encoding settings                        : cabac=1 / ref=5 / deblock=1:-3:-3 / analyse=0x3:0x133 / me=tesa / subme=11 / psy=1 / psy_rd=1.00:0.15 / mixed_ref=1 / me_range=48 / chroma_me=1 / trellis=2 / 8x8dct=1 / cqm=0 / deadzone=21,11 / fast_pskip=1 / chroma_qp_offset=-3 / threads=54 / lookahead_threads=4 / sliced_threads=0 / nr=0 / decimate=1 / interlaced=0 / bluray_compat=1 / constrained_intra=0 / bframes=3 / b_pyramid=1 / b_adapt=2 / b_bias=0 / direct=3 / weightb=1 / open_gop=0 / weightp=1 / keyint=250 / keyint_min=1 / scenecut=40 / intra_refresh=0 / rc_lookahead=60 / rc=2pass / mbtree=1 / bitrate=3700 / ratetol=1.0 / qcomp=0.60 / qpmin=0 / qpmax=69 / qpstep=4 / cplxblur=20.0 / qblur=0.5 / ip_ratio=1.40 / aq=1:1.30
    Language                                 : English
    Default                                  : Yes
    Forced                                   : No
    
    Audio #1
    ID                                       : 2
    Format                                   : DTS
    Format/Info                              : Digital Theater Systems
    Codec ID                                 : A_DTS
    Duration                                 : 1 h 49 min
    Bit rate mode                            : Constant
    Bit rate                                 : 755 kb/s
    Channel(s)                               : 6 channels
    Channel layout                           : C L R Ls Rs LFE
    Sampling rate                            : 48.0 kHz
    Frame rate                               : 93.750 FPS (512 SPF)
    Bit depth                                : 24 bits
    Compression mode                         : Lossy
    Stream size                              : 590 MiB (16%)
    Title                                    : English DTS_onlystreammovies
    Language                                 : English
    Default                                  : Yes
    Forced                                   : No
    
    Audio #2
    ID                                       : 11
    Format                                   : AAC LC
    Format/Info                              : Advanced Audio Codec Low Complexity
    Codec ID                                 : A_AAC-2
    Duration                                 : 1 h 49 min
    Bit rate                                 : 128 kb/s
    Channel(s)                               : 2 channels
    Channel layout                           : L R
    Sampling rate                            : 44.1 kHz
    Frame rate                               : 43.066 FPS (1024 SPF)
    Compression mode                         : Lossy
    Stream size                              : 100 MiB (3%)
    Title                                    : Thai_onlystreammovies
    Language                                 : Thai
    Default                                  : No
    Forced                                   : No
    
    Text #1
    ID                                       : 3
    Format                                   : VobSub
    Muxing mode                              : zlib
    Codec ID                                 : S_VOBSUB
    Codec ID/Info                            : Picture based subtitle format used on DVDs
    Duration                                 : 1 h 48 min
    Bit rate                                 : 5 395 b/s
    Count of elements                        : 1405
    Stream size                              : 4.18 MiB (0%)
    Title                                    : Thai 720p
    Language                                 : Thai
    Default                                  : No
    Forced                                   : No
    
    Text #2
    ID                                       : 4
    Format                                   : VobSub
    Muxing mode                              : zlib
    Codec ID                                 : S_VOBSUB
    Codec ID/Info                            : Picture based subtitle format used on DVDs
    Duration                                 : 1 h 48 min
    Bit rate                                 : 9 570 b/s
    Count of elements                        : 1405
    Stream size                              : 7.41 MiB (0%)
    Title                                    : Thai 1080p
    Language                                 : Thai
    Default                                  : No
    Forced                                   : No
    
    Text #3
    ID                                       : 5
    Format                                   : VobSub
    Muxing mode                              : zlib
    Codec ID                                 : S_VOBSUB
    Codec ID/Info                            : Picture based subtitle format used on DVDs
    Duration                                 : 1 h 48 min
    Bit rate                                 : 9 560 b/s
    Count of elements                        : 1405
    Stream size                              : 7.41 MiB (0%)
    Title                                    : Thai 1080p Yellow
    Language                                 : Thai
    Default                                  : No
    Forced                                   : No
    
    Text #4
    ID                                       : 6
    Format                                   : VobSub
    Muxing mode                              : zlib
    Codec ID                                 : S_VOBSUB
    Codec ID/Info                            : Picture based subtitle format used on DVDs
    Duration                                 : 1 h 48 min
    Bit rate                                 : 9 574 b/s
    Count of elements                        : 1405
    Stream size                              : 7.42 MiB (0%)
    Title                                    : Thai 1080p Out
    Language                                 : Thai
    Default                                  : No
    Forced                                   : No
    
    Text #5
    ID                                       : 7
    Format                                   : VobSub
    Muxing mode                              : zlib
    Codec ID                                 : S_VOBSUB
    Codec ID/Info                            : Picture based subtitle format used on DVDs
    Duration                                 : 1 h 48 min
    Bit rate                                 : 12.9 kb/s
    Count of elements                        : 1405
    Stream size                              : 9.97 MiB (0%)
    Title                                    : Thai 1080p BIG
    Language                                 : Thai
    Default                                  : No
    Forced                                   : No
    
    Text #6
    ID                                       : 8
    Format                                   : PGS
    Muxing mode                              : zlib
    Codec ID                                 : S_HDMV/PGS
    Codec ID/Info                            : Picture based subtitle format used on BDs/HD-DVDs
    Duration                                 : 1 h 48 min
    Bit rate                                 : 36.7 kb/s
    Count of elements                        : 2814
    Stream size                              : 28.4 MiB (1%)
    Title                                    : Thai PGS BluRay Master
    Language                                 : Thai
    Default                                  : No
    Forced                                   : No
    
    Text #7
    ID                                       : 9
    Format                                   : PGS
    Muxing mode                              : zlib
    Codec ID                                 : S_HDMV/PGS
    Codec ID/Info                            : Picture based subtitle format used on BDs/HD-DVDs
    Duration                                 : 1 h 48 min
    Bit rate                                 : 36.7 kb/s
    Count of elements                        : 2810
    Stream size                              : 28.4 MiB (1%)
    Title                                    : Thai PGS Out
    Language                                 : Thai
    Default                                  : No
    Forced                                   : No
    
    Text #8
    ID                                       : 10
    Format                                   : PGS
    Muxing mode                              : zlib
    Codec ID                                 : S_HDMV/PGS
    Codec ID/Info                            : Picture based subtitle format used on BDs/HD-DVDs
    Duration                                 : 1 h 47 min
    Bit rate                                 : 42.4 kb/s
    Count of elements                        : 3460
    Stream size                              : 32.5 MiB (1%)
    Title                                    : English
    Language                                 : English
    Default                                  : No
    Forced                                   : No




    3.6 GB
    Download: cornfile
    http://cornfile.com/k6eqp7yx7f5j
    Download: mekafile
    http://www.mekafile.com/dl.php?f=zKb1e5caEL68

    2.1 GB
    Download: cornfile
    http://cornfile.com/wbvir2kli89g
    Download: mekafile
    http://www.mekafile.com/dl.php?f=Cxa951caE7cS

  2. The Following 4 Users Say Thank You to Duckload.us For This Useful Post:

    gaszolineskywalker (06-28-2020), neorun (06-30-2020), smakha (06-25-2020), Wesker_TOT (06-25-2020)

  3. #2
    Senior Member
    สมัครเมื่อ
    Dec 2013
    โพสต์
    2,123
    Thanks
    4,043
    Thanked 0 Times in 0 Posts
    ขอบคุณครับ...

  4. #3
    Senior Member รูปส่วนตัว ksurachai
    สมัครเมื่อ
    Nov 2019
    โพสต์
    169
    Thanks
    64
    Thanked 0 Times in 0 Posts
    ขอบคุณมากๆครับ

  5. #4
    Senior Member
    สมัครเมื่อ
    Oct 2012
    โพสต์
    1,142
    Thanks
    2,077
    Thanked 0 Times in 0 Posts
    ไม่ใช่ไทยมาสเตอร์อ่ะทั้งไฟล์เล็ก ไฟล์ใหญ่ เสียงมันก้องๆแบบไทยโรงอ่ะ

+ ตอบกลับกระทู้

ข้อมูลกระทู้

Users Browsing this Thread

ในขณะนี้มี 1 ท่านดูกระทู้อยู่. (0 สมาชิกและ 1 ผู้เยี่ยมชม)

     

กฎการโพสต์ข้อความ

  • ท่าน ไม่สามารถ ตั้งกระทู้ใหม่ได้
  • ท่าน ไม่สามารถ ตอบกระทู้ได้
  • ท่าน ไม่สามารถ แนบไฟล์ได้
  • ท่าน ไม่สามารถ แก้ไขข้อความโพสต์ได้
  • BB code สถานะ เปิด
  • Smilies สถานะ เปิด
  • [IMG] สถานะ เปิด
  • HTML สถานะ ปิด