+ ตอบกลับกระทู้
สรุปผลการค้นหา 1 ถึง 8 จากทั้งหมด 8
  1. #1
    Administrators รูปส่วนตัว Duckload.us
    สมัครเมื่อ
    Dec 2010
    โพสต์
    115,803
    Thanks
    7
    Thanked 122,242 Times in 54,846 Posts

    Question [เกาหลี]-[18+]UNRATED[ SEX IS ZERO] (2002) ปิ๊ด ปี้ ปิ๊ด ยกก๊วน กิ๊กสาว ภาค 1-2-Blu-ray.AC-3.1080p. [Modified]-[พากย์ไทย] [* เวอร์ชั่น Unrated Cut ฉบับเต็มไม่มีตัด ไม่เซ็นเซอร์]



    หลังจากปลดประจำการจากกรมทหาร ผนวกกับความใฝ่ฝันที่ะทำงานเป็นผู้พิพากษา อึนซิก ในวัย 28 จึงต้องฝืนสังขาร สมัครเข้าเรียนมหาวิทยาลัย และต้องปลอมตัวลดอายุ เพื่อจะได้เข้ากลุ่มกับเพื่อนวัยละอ่อนได้ไม่ขัดเขิน เขากับเพื่อน จอมทะลึ่งอีก 3 คน เช่าห้องพักในมหาวิทยาลัย กิจวัตรยามว่าง คือ การดูวีซีดีหนังเรดเอ็กซ์ แล้ววิพากษ์วิจารณ์อย่างปากจัดเป็นที่สนุกสนาน

    Format : Matroska
    Format version : Version 4
    File size : 6.27 GiB
    Duration : 1 h 36 min
    Overall bit rate : 9 306 kb/s
    Encoded date : UTC 2020-06-07 05:54:53
    Writing application : mkvmerge v7.0.0 ('Where We Going') 64bit built on Jun 9 2014 15:16:27
    Writing library : libebml v1.3.0 + libmatroska v1.4.1

    Video
    ID : 1
    Format : AVC
    Format/Info : Advanced Video Codec
    Format profile : [email protected]
    Format settings : CABAC / 4 Ref Frames
    Format settings, CABAC : Yes
    Format settings, Reference frames : 4 frames
    Codec ID : V_MPEG4/ISO/AVC
    Duration : 1 h 36 min
    Bit rate : 8 210 kb/s
    Width : 1 920 pixels
    Height : 1 040 pixels
    Display aspect ratio : 1.85:1
    Frame rate mode : Constant
    Frame rate : 24.000 FPS
    Color space : YUV
    Chroma subsampling : 4:2:0
    Bit depth : 8 bits
    Scan type : Progressive
    Bits/(Pixel*Frame) : 0.171
    Stream size : 5.53 GiB (88%)
    Writing library : x264 core 157 r2969 d4099dd
    Encoding settings : cabac=1 / ref=4 / deblock=1:0:0 / analyse=0x3:0x133 / me=umh / subme=7 / psy=1 / psy_rd=1.00:0.00 / mixed_ref=1 / me_range=16 / chroma_me=1 / trellis=1 / 8x8dct=1 / cqm=0 / deadzone=21,11 / fast_pskip=0 / chroma_qp_offset=-2 / threads=12 / lookahead_threads=2 / sliced_threads=0 / nr=0 / decimate=1 / interlaced=0 / bluray_compat=0 / constrained_intra=0 / bframes=3 / b_pyramid=2 / b_adapt=2 / b_bias=0 / direct=3 / weightb=1 / open_gop=0 / weightp=2 / keyint=240 / keyint_min=24 / scenecut=40 / intra_refresh=0 / rc_lookahead=50 / rc=2pass / mbtree=1 / bitrate=8210 / ratetol=1.0 / qcomp=0.60 / qpmin=0 / qpmax=69 / qpstep=4 / cplxblur=20.0 / qblur=0.5 / ip_ratio=1.40 / aq=1:1.00
    Language : English
    Default : Yes
    Forced : No

    Audio #1
    ID : 2
    Format : AC-3
    Format/Info : Audio Coding 3
    Commercial name : Dolby Digital
    Codec ID : A_AC3
    Duration : 1 h 36 min
    Bit rate mode : Constant
    Bit rate : 448 kb/s
    Channel(s) : 6 channels
    Channel layout : L R C LFE Ls Rs
    Sampling rate : 48.0 kHz
    Frame rate : 31.250 FPS (1536 SPF)
    Bit depth : 16 bits
    Compression mode : Lossy
    Stream size : 309 MiB (5%)
    Title : AC3 5.1
    Language : Thai
    Service kind : Complete Main
    Default : Yes
    Forced : No

    Audio #2
    ID : 3
    Format : AC-3
    Format/Info : Audio Coding 3
    Commercial name : Dolby Digital
    Codec ID : A_AC3
    Duration : 1 h 36 min
    Bit rate mode : Constant
    Bit rate : 640 kb/s
    Channel(s) : 6 channels
    Channel layout : L R C LFE Ls Rs
    Sampling rate : 48.0 kHz
    Frame rate : 31.250 FPS (1536 SPF)
    Bit depth : 16 bits
    Compression mode : Lossy
    Stream size : 442 MiB (7%)
    Title : AC3 5.1
    Language : Korean
    Service kind : Complete Main
    Default : No
    Forced : No

    Text #1
    ID : 4
    Format : UTF-8
    Codec ID : S_TEXT/UTF8
    Codec ID/Info : UTF-8 Plain Text
    Duration : 1 h 32 min
    Bit rate : 32 b/s
    Count of elements : 724
    Stream size : 21.9 KiB (0%)
    Title : English
    Language : English
    Default : Yes
    Forced : No

    Text #2
    ID : 5
    Format : VobSub
    Muxing mode : zlib
    Codec ID : S_VOBSUB
    Codec ID/Info : Picture based subtitle format used on DVDs
    Duration : 1 h 31 min
    Bit rate : 2 987 b/s
    Count of elements : 748
    Stream size : 1.95 MiB (0%)
    Title : vob
    Language : Korean
    Default : No
    Forced : No

    Text #3
    ID : 6
    Format : VobSub
    Muxing mode : zlib
    Codec ID : S_VOBSUB
    Codec ID/Info : Picture based subtitle format used on DVDs
    Duration : 1 h 32 min
    Bit rate : 3 777 b/s
    Count of elements : 724
    Stream size : 2.49 MiB (0%)
    Title : vob
    Language : English
    Default : No
    Forced : No





    Download: cornfile
    http://cornfile.com/0g0fnsq66tw5
    Download: mekafile
    http://www.mekafile.com/dl.php?f=aT8e56caE9DW

    Sex is Zero 2 (2007).(UNCUT).mkv
    http://cornfile.com/x0ui1erm6bqa
    http://www.mekafile.com/dl.php?f=Zh93d2caVXIn fix

  2. The Following 5 Users Say Thank You to Duckload.us For This Useful Post:

    agg001 (06-25-2020), gaszolineskywalker (06-28-2020), noi54 (06-24-2020), spidertoon (06-26-2020), Wesker_TOT (06-25-2020)

  3. #2
    Senior Member
    สมัครเมื่อ
    Oct 2013
    โพสต์
    1,739
    Thanks
    0
    Thanked 0 Times in 0 Posts
    ขอบคุณครับ

  4. #3
    Junior Member
    สมัครเมื่อ
    Oct 2018
    โพสต์
    5
    Thanks
    1
    Thanked 0 Times in 0 Posts
    ขอภาค2ด้วยครับแอดมิน

  5. #4
    Senior Member
    สมัครเมื่อ
    Dec 2013
    โพสต์
    2,120
    Thanks
    4,040
    Thanked 0 Times in 0 Posts
    ขอบคุณนะครับ...

  6. #5
    Senior Member
    สมัครเมื่อ
    Jul 2013
    โพสต์
    708
    Thanks
    0
    Thanked 0 Times in 0 Posts
    กี่รอบก็ฮา ขอบคุณครับ

  7. #6
    Senior Member
    สมัครเมื่อ
    Jan 2011
    โพสต์
    738
    Thanks
    996
    Thanked 0 Times in 0 Posts
    ขอบคุณครับ

  8. #7
    Senior Member
    สมัครเมื่อ
    Jun 2012
    โพสต์
    1,342
    Thanks
    0
    Thanked 1 Time in 1 Post
    ขอบคุณครับ

  9. #8
    Senior Member
    สมัครเมื่อ
    Oct 2012
    โพสต์
    1,142
    Thanks
    2,077
    Thanked 0 Times in 0 Posts
    ขอบคุณครับ

+ ตอบกลับกระทู้

ข้อมูลกระทู้

Users Browsing this Thread

ในขณะนี้มี 1 ท่านดูกระทู้อยู่. (0 สมาชิกและ 1 ผู้เยี่ยมชม)

     

กฎการโพสต์ข้อความ

  • ท่าน ไม่สามารถ ตั้งกระทู้ใหม่ได้
  • ท่าน ไม่สามารถ ตอบกระทู้ได้
  • ท่าน ไม่สามารถ แนบไฟล์ได้
  • ท่าน ไม่สามารถ แก้ไขข้อความโพสต์ได้
  • BB code สถานะ เปิด
  • Smilies สถานะ เปิด
  • [IMG] สถานะ เปิด
  • HTML สถานะ ปิด