ปิดฉากตำนานซีรีย์สุดมัน 100 ชีวิต กู้วิกฤตจักรวาล ซีซั่นสุดท้าย
ความมันส์ที่คุณห้ามพลาด

Format : MPEG-4
Format profile : Base Media / Version 2
Codec ID : mp42 (isom/mp42)
File size : 790 MiB
Duration : 42 min 24 s
Overall bit rate mode : Variable
Overall bit rate : 2 603 kb/s
Encoded date : UTC 2020-06-20 21:47:31
Tagged date : UTC 2020-06-20 21:47:31
Writing application : Google
gsst : 0
gstd : 2544768

Video
ID : 1
Format : AVC
Format/Info : Advanced Video Codec
Format profile : [email protected]
Format settings : 1 Ref Frames
Format settings, CABAC : No
Format settings, Reference frames : 1 frame
Codec ID : avc1
Codec ID/Info : Advanced Video Coding
Duration : 42 min 24 s
Bit rate : 2 472 kb/s
Width : 1 920 pixels
Height : 1 080 pixels
Display aspect ratio : 16:9
Frame rate mode : Constant
Frame rate : 25.000 FPS
Color space : YUV
Chroma subsampling : 4:2:0
Bit depth : 8 bits
Scan type : Progressive
Bits/(Pixel*Frame) : 0.048
Stream size : 750 MiB (95%)
Title : ISO Media file produced by Google Inc. Created on: 06/20/2020.
Writing library : x264 core 155 r2901 7d0ff22
Encoded date : UTC 2020-06-20 21:47:31
Tagged date : UTC 2020-06-20 21:47:31
Color range : Limited
Color primaries : BT.709
Transfer characteristics : BT.709
Matrix coefficients : BT.709
Codec configuration box : avcC

Audio
ID : 2
Format : AAC LC
Format/Info : Advanced Audio Codec Low Complexity
Codec ID : mp4a-40-2
Duration : 42 min 24 s
Bit rate mode : Variable
Bit rate : 128 kb/s
Channel(s) : 2 channels
Channel layout : L R
Sampling rate : 44.1 kHz
Frame rate : 43.066 FPS (1024 SPF)
Compression mode : Lossy
Stream size : 38.8 MiB (5%)
Title : ISO Media file produced by Google Inc. Created on: 06/20/2020.
Language : English
Encoded date : UTC 2020-06-20 21:47:31
Tagged date : UTC 2020-06-20 21:47:31





1
http://www.filecondo.com/dl.php?f=Da02f01JOP7j
2
http://www.filecondo.com/dl.php?f=B4810e1JOP8k
3
http://www.filecondo.com/dl.php?f=x795c81JOP9e
4
http://www.filecondo.com/dl.php?f=3523ca1JOPae
5
http://www.filecondo.com/dl.php?f=8374e11JOPba