Ace Ventura Pet Detective เอซ เวนทูร่า นักสืบซุปเปอร์เก๊ก [1994]
เรื่องย่อ...
เอซ เวนทูร่า (Jim Carrey ) นักสืบสารพัดสัตว์ที่เดิมทีรับงานสืบเล็กๆน้อยๆไปเรื ่อย มีความสามารถพิเศษ รู้ใจสัตว์ รู้เรื่องสัตว์ระดับสุดยอด ..มีความสนิทสนมกับสัตว์อย่างมาก และแล้ว ปลาวาฬอันเป็นมาสค็อตของทีมดอลฟินเกิดหายไป เอซ เวนทูร่า จึงต้องออกตามหา ซึ่งยังต้องตามสืบคดีฆาตกรรมอีกต่างหาก.. เพราะว่าเรื่องราวนี้มีคนบงการอยู่เบื้องหลัง และพวกนั้นต้องมีแผนการร้ายกาจแน่นอน แบบนี้ยอดนักสืบจอมเก๊กคงไม่อาจรอช้า ต้องลากคอมันออกมาให้จงได้
************************************************** ***************
Format : Matroska
Format version : Version 2
File size : 2.97 GiB
Duration : 1 h 26 min
Overall bit rate : 4 941 kb/s
Movie name : Ace.Ventura.Pet.Detective.1994.1080p.DTS.BluRay.x2 64-joythun / Ace Ventura Pet Detective 1994 By MgB
Encoded date : UTC 2015-04-28 17:29:08
Writing application : mkvmerge v5.0.1 ('Es ist Sommer') built on Oct 9 2011 11:55:43
Writing library : libebml v1.2.2 + libmatroska v1.3.0

Video
ID : 1
Format : AVC
Format/Info : Advanced Video Codec
Format profile : [email protected]
Format settings : CABAC / 4 Ref Frames
Format settings, CABAC : Yes
Format settings, ReFrames : 4 frames
Muxing mode : Header stripping
Codec ID : V_MPEG4/ISO/AVC
Duration : 1 h 26 min
Bit rate : 2 951 kb/s
Width : 1 920 pixels
Height : 1 080 pixels
Display aspect ratio : 16:9
Frame rate mode : Constant
Frame rate : 23.976 (24000/1001) FPS
Color space : YUV
Chroma subsampling : 4:2:0
Bit depth : 8 bits
Scan type : Progressive
Bits/(Pixel*Frame) : 0.059
Stream size : 1.73 GiB (58%)
Writing library : x264 core 130 r2273 b3065e6
Encoding settings : cabac=1 / ref=1 / deblock=1:0:0 / analyse=0x1:0x111 / me=hex / subme=2 / psy=1 / psy_rd=1.00:0.00 / mixed_ref=0 / me_range=16 / chroma_me=1 / trellis=0 / 8x8dct=0 / cqm=0 / deadzone=21,11 / fast_pskip=1 / chroma_qp_offset=0 / threads=6 / lookahead_threads=2 / sliced_threads=0 / nr=0 / decimate=1 / interlaced=0 / bluray_compat=0 / constrained_intra=0 / bframes=3 / b_pyramid=2 / b_adapt=1 / b_bias=0 / direct=1 / weightb=1 / open_gop=0 / weightp=1 / keyint=240 / keyint_min=24 / scenecut=40 / intra_refresh=0 / rc_lookahead=10 / rc=abr / mbtree=1 / bitrate=2951 / ratetol=1.0 / qcomp=0.60 / qpmin=0 / qpmax=69 / qpstep=4 / vbv_maxrate=20000 / vbv_bufsize=25000 / nal_hrd=none / ip_ratio=1.40 / aq=1:1.00
Language : English
Default : Yes
Forced : No
Color range : Limited
Color primaries : BT.709
Transfer characteristics : BT.709
Matrix coefficients : BT.709

Audio #1
ID : 2
Format : DTS
Format/Info : Digital Theater Systems
Muxing mode : Header stripping
Codec ID : A_DTS
Duration : 1 h 26 min
Bit rate mode : Constant
Bit rate : 1 509 kb/s
Channel(s) : 6 channels
Channel positions : Front: L C R, Side: L R, LFE
Sampling rate : 48.0 kHz
Frame rate : 93.750 FPS (512 SPF)
Bit depth : 24 bits
Compression mode : Lossy
Stream size : 928 MiB (31%)
Title : ENG DTS 5.1
Language : English
Default : No
Forced : No

Audio #2
ID : 3
Format : AC-3
Format/Info : Audio Coding 3
Muxing mode : Header stripping
Codec ID : A_AC3
Duration : 1 h 26 min
Bit rate mode : Constant
Bit rate : 448 kb/s
Channel(s) : 6 channels
Channel positions : Front: L C R, Side: L R, LFE
Sampling rate : 48.0 kHz
Frame rate : 31.250 FPS (1536 SPF)
Bit depth : 16 bits
Compression mode : Lossy
Stream size : 276 MiB (9%)
Title : THAI 5.1 DVD MASTER
Language : Thai
Service kind : Complete Main
Default : Yes
Forced : No

Text #1
ID : 4
Format : VobSub
Muxing mode : zlib
Codec ID : S_VOBSUB
Codec ID/Info : Picture based subtitle format used on DVDs
Title : 480p DVD MASTER
Language : Thai
Default : No
Forced : No

Text #2
ID : 5
Format : VobSub
Muxing mode : zlib
Codec ID : S_VOBSUB
Codec ID/Info : Picture based subtitle format used on DVDs
Title : 1080p
Language : Thai
Default : Yes
Forced : No

Text #3
ID : 6
Format : VobSub
Muxing mode : zlib
Codec ID : S_VOBSUB
Codec ID/Info : Picture based subtitle format used on DVDs
Title : 1080p Yellow
Language : Thai
Default : No
Forced : No

Text #4
ID : 7
Format : VobSub
Muxing mode : zlib
Codec ID : S_VOBSUB
Codec ID/Info : Picture based subtitle format used on DVDs
Title : 1080p Out
Language : Thai
Default : No
Forced : No

Text #5
ID : 8
Format : PGS
Muxing mode : zlib
Codec ID : S_HDMV/PGS
Codec ID/Info : Picture based subtitle format used on BDs/HD-DVDs
Title : PGS 1080p
Language : Thai
Default : No
Forced : No

Text #6
ID : 9
Format : PGS
Muxing mode : zlib
Codec ID : S_HDMV/PGS
Codec ID/Info : Picture based subtitle format used on BDs/HD-DVDs
Title : PGS 1080p Out
Language : Thai
Default : No
Forced : No

Text #7
ID : 10
Format : UTF-8
Codec ID : S_TEXT/UTF8
Codec ID/Info : UTF-8 Plain Text
Title : ENG SRT
Language : English
Default : No
Forced : No

Menu
00:00:00.000 : en:Chapter 1
00:03:39.094 : en:Chapter 2
00:05:47.973 : en:Chapter 3
00:06:43.403 : en:Chapter 4
00:07:49.135 : en:Chapter 5
00:11:01.244 : en:Chapter 6
00:13:28.683 : en:Chapter 7
00:15:01.526 : en:Chapter 8
00:18:13.050 : en:Chapter 9
00:22:55.457 : en:Chapter 10
00:25:42.332 : en:Chapter 11
00:28:20.199 : en:Chapter 12
00:33:16.536 : en:Chapter 13
00:36:44.327 : en:Chapter 14
00:38:35.271 : en:Chapter 15
00:42:58.242 : en:Chapter 16
00:46:30.579 : en:Chapter 17
00:47:49.283 : en:Chapter 18
00:52:26.935 : en:Chapter 19
00:54:37.608 : en:Chapter 20
00:58:17.577 : en:Chapter 21
01:00:40.428 : en:Chapter 22
01:04:04.632 : en:Chapter 23
01:07:42.016 : en:Chapter 24
01:10:39.569 : en:Chapter 25
01:12:20.837 : en:Chapter 26
01:14:09.236 : en:Chapter 27
01:15:41.203 : en:Chapter 28


Ace.Ventura.Pet.Detective.1994.1080p.DTS.BluRay.x2 64-joythun.mkv - 3.0 GB
Ace.Ventura.When.Nature.Calls.1995.1080p.DTS.BluRa y.x264-joythun.mkv - 3.0 GB

1
http://www.mekafile.com/dl.php?f=sI5a8fcamJTT
2
http://www.mekafile.com/dl.php?f=Kje01ccamJGs