+ ตอบกลับกระทู้
สรุปผลการค้นหา 1 ถึง 1 จากทั้งหมด 1
  1. #1
    Administrators รูปส่วนตัว Duckload.us
    สมัครเมื่อ
    Dec 2010
    โพสต์
    115,841
    Thanks
    7
    Thanked 122,287 Times in 54,859 Posts

    Question [ฝรั่ง]-Mortal (2020) : ปริศนาพลังเหนือมนุษย์ -MiniBD.AC-3.1080p. [Modified]-[พากย์ไทย บรรยายไทย]



    อีริก เบิร์กแลนด์หนุ่มนักท่องเที่ยวแบกเป้ชาวอเมริกันที่เ ดินทางไปตามหาญาติที่นอร์เวย์
    แล้วพบพลังบางสิ่งบางอย่างที่ผิดปกติในตัวเขา เขาถูกจับกุมหลังจากทำให้เด็กวัยรุ่นคนหนึ่งเสียชีวิ ต
    แล้วก็หาทางหลบหนีการคุมขังได้พร้อมกับคริสตีน นักจิตวิทยาที่เขาพบระหว่างถูกสอบสวน
    ขณะที่หลบหนีการไล่ล่าของเจ้าหน้าที่ อีริกและคริสตีน ต้องร่วมมือกันหาสาเหตุของพลังที่อยู่ในตัวของอีริก
    และเขาต้องหาทางควบคุมมันให้ได้ก่อนที่ทุกอย่างจะสาย ไป


    Format : Matroska
    Format version : Version 4
    File size : 3.47 GiB
    Duration : 1 h 39 min
    Overall bit rate : 4 975 kb/s
    Encoded date : UTC 2020-06-28 14:55:58
    Writing application : mkvmerge v47.0.0 ('Black Flag') 64-bit
    Writing library : libebml v1.3.10 + libmatroska v1.5.2
    Cover : Yes
    Attachments : cover.jpg

    Video
    ID : 2
    Format : AVC
    Format/Info : Advanced Video Codec
    Format profile : [email protected]
    Format settings : CABAC / 5 Ref Frames
    Format settings, CABAC : Yes
    Format settings, Reference frames : 5 frames
    Codec ID : V_MPEG4/ISO/AVC
    Duration : 1 h 39 min
    Bit rate : 4 455 kb/s
    Width : 1 920 pixels
    Height : 806 pixels
    Display aspect ratio : 2.40:1
    Frame rate mode : Constant
    Frame rate : 25.000 FPS
    Color space : YUV
    Chroma subsampling : 4:2:0
    Bit depth : 8 bits
    Scan type : Progressive
    Bits/(Pixel*Frame) : 0.115
    Stream size : 3.11 GiB (90%)
    Language : English
    Default : Yes
    Forced : No
    Color range : Limited
    Color primaries : BT.709
    Transfer characteristics : BT.709
    Matrix coefficients : BT.709

    Audio #1
    ID : 1
    Format : AC-3
    Format/Info : Audio Coding 3
    Commercial name : Dolby Digital
    Codec ID : A_AC3
    Duration : 1 h 39 min
    Bit rate mode : Constant
    Bit rate : 384 kb/s
    Channel(s) : 6 channels
    Channel layout : L R C LFE Ls Rs
    Sampling rate : 48.0 kHz
    Frame rate : 31.250 FPS (1536 SPF)
    Bit depth : 16 bits
    Compression mode : Lossy
    Stream size : 274 MiB (8%)
    Language : English
    Service kind : Complete Main
    Default : No
    Forced : No

    Audio #2
    ID : 7
    Format : MPEG Audio
    Format version : Version 1
    Format profile : Layer 3
    Format settings : Joint stereo / MS Stereo
    Codec ID : A_MPEG/L3
    Codec ID/Hint : MP3
    Duration : 1 h 39 min
    Bit rate mode : Constant
    Bit rate : 128 kb/s
    Channel(s) : 2 channels
    Sampling rate : 44.1 kHz
    Frame rate : 38.281 FPS (1152 SPF)
    Compression mode : Lossy
    Stream size : 91.4 MiB (3%)
    Language : Thai
    Default : Yes
    Forced : No

    Text #1
    ID : 3
    Format : VobSub
    Muxing mode : zlib
    Codec ID : S_VOBSUB
    Codec ID/Info : Picture based subtitle format used on DVDs
    Duration : 1 h 33 min
    Bit rate : 3 877 b/s
    Count of elements : 433
    Stream size : 2.58 MiB (0%)
    Title : Thai - Subtitle by Unknown
    Language : Thai
    Default : Yes
    Forced : No

    Text #2
    ID : 4
    Format : PGS
    Muxing mode : zlib
    Codec ID : S_HDMV/PGS
    Codec ID/Info : Picture based subtitle format used on BDs/HD-DVDs
    Duration : 1 h 33 min
    Bit rate : 11.5 kb/s
    Count of elements : 866
    Stream size : 7.67 MiB (0%)
    Title : Thai.PGS - Subtitle by Unknown
    Language : Thai
    Default : No
    Forced : No

    Text #3
    ID : 5
    Format : UTF-8
    Codec ID : S_TEXT/UTF8
    Codec ID/Info : UTF-8 Plain Text
    Duration : 1 h 33 min
    Bit rate : 57 b/s
    Count of elements : 433
    Stream size : 39.2 KiB (0%)
    Title : Thai.SRT - Subtitle by Unknown
    Language : Thai
    Default : No
    Forced : No

    Text #4
    ID : 6
    Format : UTF-8
    Codec ID : S_TEXT/UTF8
    Codec ID/Info : UTF-8 Plain Text
    Duration : 1 h 25 min
    Bit rate : 27 b/s
    Count of elements : 413
    Stream size : 17.2 KiB (0%)
    Title : English
    Language : English
    Default : No
    Forced : No






    Download: cornfile
    http://cornfile.com/ppgi4ijfq167
    Download: mekafile
    http://www.mekafile.com/dl.php?f=dj0904caQNf6

  2. The Following User Says Thank You to Duckload.us For This Useful Post:

    Jodz14 (07-02-2020)

+ ตอบกลับกระทู้

ข้อมูลกระทู้

Users Browsing this Thread

ในขณะนี้มี 1 ท่านดูกระทู้อยู่. (0 สมาชิกและ 1 ผู้เยี่ยมชม)

     

กฎการโพสต์ข้อความ

  • ท่าน ไม่สามารถ ตั้งกระทู้ใหม่ได้
  • ท่าน ไม่สามารถ ตอบกระทู้ได้
  • ท่าน ไม่สามารถ แนบไฟล์ได้
  • ท่าน ไม่สามารถ แก้ไขข้อความโพสต์ได้
  • BB code สถานะ เปิด
  • Smilies สถานะ เปิด
  • [IMG] สถานะ เปิด
  • HTML สถานะ ปิด