+ ตอบกลับกระทู้
สรุปผลการค้นหา 1 ถึง 2 จากทั้งหมด 2
  1. #1
    Administrators รูปส่วนตัว Duckload.us
    สมัครเมื่อ
    Dec 2010
    โพสต์
    116,973
    Thanks
    7
    Thanked 123,251 Times in 55,238 Posts

    Lightbulb [เกาหลี]-[Falling for Innocence รักนี้ หัวใจเต้นแรง Jung Kyung Ho, Kim So Yun, Yoon Hyun Min Ep.1-16/End]-HDTV.H.264.1080p. [From HD-TV]-[Soundtrack บรรยายไทย]




    ซีรี่ย์เกาหลี: Falling for Innocence, Fall in Love with Soonjung, Beating Again
    ชื่อภาษาไทย: รักนี้ หัวใจเต้นแรง, ซุนจองดาวพระศุกร์
    ประเภท: Romance, Comedy, Drama
    จำนวนตอน: 16
    นำแสดงโดย: Jung Kyung Ho, Kim So Yun, Yoon Hyun Min
    ผู้กำกับ: Ji Yeong Su
    เขียนบทโดย: Yoo Hee Kyung
    ออกอากาศทางสถานีโทรทัศน์: jTBC
    เริ่มออกอากาศ: 3 เม.ย. 2015 - 23 พ.ค. 2015
    เวลาออกอากาศ: วันศุกร์ - วันเสาร์ 21:50 น. เวลาเกาหลี 19:50 น. เวลาไทย
    นักแสดง:
    Jung Kyung Ho as Kang Min Ho
    Lee Tae Woo as young Kang Min Ho
    Kim So Yun as Kim Soon Jung
    Jung Da Bin as young Kim Soon Jung
    Yoon Hyun Min as Lee Joon Hee
    Jin Goo as Ma Dong Wook
    People at Gold Inc.
    Gong Hyun Joo as Han Ji Hyun
    Lee Shi Un as Oh Woo Shik
    People at Hermia Headquarters
    Park Young Kyu as Kang Hyun Chul
    ?? as Min Hye Ri
    ?? as Kang Sung Min
    ?? as Kang Ji Min
    Kim Jung Suk as Director Yoon
    Lee Soo Ji as Oh Mi Roo
    Jung Yoo Min as Yoo Yoo Mi
    People at Central Factory
    Ahn Suk Hwan as Ma Tae Suk
    Nam Myung Ryul as Lee Jung Goo
    People at Police Station
    Jo Eun Ji as Na Ok Hyun
    Others
    Joey Albright
    Jung Dong Kyu
    Lee Ji Oh
    Synopsis: ซีรี่ย์แนวโรแมนติกแฟนตาซีระทึกขวัญเล่าถึงเรื่องราว ของ Cellular Memory Syndrome (เป็นกลุ่มอาการของโรคที่ปรากฏในผู้ได้รับประโยชน์จา กการปลูกถ่ายอวัยวะภายใน โดยเป็นปรากฏการณ์ที่ทุกสิ่งทุกอย่าง เช่น ความเคยชิน พรสวรรค์ รสนิยม ลักษณะการกิน และความทรงจำของผู้ที่บริจาคจะถูกโยกย้ายมายังผู้ได้ รับอวัยวะภายในทั้งหมด) Falling For Innocence จะเล่าถึงเรื่องราวของชายคนหนึ่งที่ละทิ้งมนุษยธรรมห ลังจากสูญเสียครอบครัวจากการเสียชีวิตอย่างกะทันหันข องพ่อที่เคยเปนประธานบริษัทเมื่อ 25 ปีก่อน และถูกลุงผู้เต็มไปด้วยความทะเยอทะยานฮุบบริษัทไป เขาเข้ารับการผ่าตัดปลูกถ่ายหัวใจและได้พบกับหญิงสาว คนหนึ่งที่เขาอยากจะปกป้องไปตลอดชีวิต ซึ่งทำให้เขาได้เรียนรู้ถึงความหมายของความสุขและควา มรักที่แท้จริง โดยในเรื่อง จองคยองโฮจะรับบทเป็น คังมินโฮ ผู้เชี่ยวชาญการลงทุนที่มีหัวใจที่เร่าร้อนหลังจากผ่ าตัดปลูกถ่ายหัวใจ ส่วนคิมโซยอนจะรับบทเป็น คิมซุนจอง เลขานุการสาวที่ดึงดูดใจ เรื่องราวจะเป็นเช่นไรติดตามได้ในซีรี่ย์เกาหลี Falling for Innocence รักนี้ หัวใจเต้นแรง
    Credit: franky

    General
    Unique ID : 310269261441172119984610931164028518476 (0xE96BAFA715743E93F40CEF771EE2C04C)
    Complete name : K:Falling for Innocence รักนี้ หัวใจเต้นแรงBeating.Again.S01E09.1080p.NF.WEB-DL.DDP2.0.x264.mkv
    Format : Matroska
    Format version : Version 4
    File size : 1.52 GiB
    Duration : 1 h 0 min
    Overall bit rate mode : Variable
    Overall bit rate : 3 625 kb/s
    Encoded date : UTC 2020-07-01 05:40:11
    Writing application : mkvmerge v19.0.0 ('Brave Captain') 64-bit
    Writing library : libebml v1.3.5 + libmatroska v1.4.8

    Video
    ID : 1
    Format : AVC
    Format/Info : Advanced Video Codec
    Format profile : [email protected]
    Format settings : CABAC / 3 Ref Frames
    Format settings, CABAC : Yes
    Format settings, Reference fra : 3 frames
    Codec ID : V_MPEG4/ISO/AVC
    Duration : 1 h 0 min
    Bit rate mode : Variable
    Bit rate : 3 480 kb/s
    Maximum bit rate : 5 220 kb/s
    Width : 1 920 pixels
    Height : 1 080 pixels
    Display aspect ratio : 16:9
    Frame rate mode : Constant
    Frame rate : 29.970 (30000/1001) FPS
    Color space : YUV
    Chroma subsampling : 4:2:0
    Bit depth : 8 bits
    Scan type : Progressive
    Bits/(Pixel*Frame) : 0.056
    Stream size : 1.46 GiB (96%)
    Writing library : x264 core 118
    Encoding settings : cabac=1 / ref=3 / deblock=1:0:0 / analyse=0x1:0x111 / me=umh / subme=10 / psy=1 / psy_rd=1.00:0.00 / mixed_ref=1 / me_range=24 / chroma_me=1 / trellis=2 / 8x8dct=0 / cqm=0 / deadzone=21,11 / fast_pskip=1 / chroma_qp_offset=-2 / threads=8 / sliced_threads=0 / nr=0 / decimate=1 / interlaced=0 / bluray_compat=0 / constrained_intra=0 / bframes=2 / b_pyramid=0 / b_adapt=2 / b_bias=0 / direct=3 / weightb=1 / open_gop=0 / weightp=2 / keyint=60 / keyint_min=31 / scenecut=0 / intra_refresh=0 / rc_lookahead=0 / rc=2pass / mbtree=1 / bitrate=3480 / ratetol=1.0 / qcomp=0.50 / qpmin=6 / qpmax=51 / qpstep=4 / cplxblur=20.0 / qblur=0.5 / vbv_maxrate=5220 / vbv_bufsize=6960 / nal_hrd=vbr / ip_ratio=1.40 / aq=1:1.00
    Default : Yes
    Forced : No

    Audio
    ID : 2
    Format : E-AC-3
    Format/Info : Enhanced AC-3
    Commercial name : Dolby Digital Plus
    Codec ID : A_EAC3
    Duration : 1 h 0 min
    Bit rate mode : Constant
    Bit rate : 128 kb/s
    Channel(s) : 2 channels
    Channel layout : L R
    Sampling rate : 48.0 kHz
    Frame rate : 31.250 FPS (1536 SPF)
    Compression mode : Lossy
    Stream size : 55.1 MiB (4%)
    Language : Korean
    Service kind : Complete Main
    Default : Yes
    Forced : No

    Text #1
    ID : 3
    Format : UTF-8
    Codec ID : S_TEXT/UTF8
    Codec ID/Info : UTF-8 Plain Text
    Duration : 59 min 27 s
    Bit rate : 172 b/s
    Count of elements : 1067
    Stream size : 75.1 KiB (0%)
    Language : Thai
    Default : Yes
    Forced : No

    Text #2
    ID : 4
    Format : PGS
    Muxing mode : zlib
    Codec ID : S_HDMV/PGS
    Codec ID/Info : Picture based subtitle format used on BDs/HD-DVDs
    Duration : 59 min 27 s
    Bit rate : 31.1 kb/s
    Count of elements : 2134
    Stream size : 13.2 MiB (1%)
    Language : Thai
    Default : No
    Forced : No



    1
    http://www.filecondo.com/dl.php?f=b91bff1JQSzW
    2
    http://www.filecondo.com/dl.php?f=V6a4e01JQSAV
    3
    http://www.filecondo.com/dl.php?f=t6a9f91JQSBT
    4
    http://www.filecondo.com/dl.php?f=n1ec8b1JQSCP
    5
    http://www.filecondo.com/dl.php?f=gae6ba1JQSDP
    6
    http://www.filecondo.com/dl.php?f=D34a221JQSEK
    7
    http://www.filecondo.com/dl.php?f=8adadb1JQSFJ
    8
    http://www.filecondo.com/dl.php?f=9076921JQSGH
    9
    http://www.filecondo.com/dl.php?f=F2035d1JQSHF
    10
    http://www.filecondo.com/dl.php?f=S034121JQSIC
    11
    http://www.filecondo.com/dl.php?f=0f782e1JQSJD
    12
    http://www.filecondo.com/dl.php?f=Y0045a1JQSKy
    13
    http://www.filecondo.com/dl.php?f=Sc23511JQSLw
    14
    http://www.filecondo.com/dl.php?f=Dcd27d1JQSMv
    15
    http://www.filecondo.com/dl.php?f=C043b41JQSNu
    16
    http://www.filecondo.com/dl.php?f=ybfa181JQSOu

  2. The Following 2 Users Say Thank You to Duckload.us For This Useful Post:

    JOMMY_2 (07-03-2020), kappa (07-26-2020)

  3. #2
    Senior Member
    สมัครเมื่อ
    May 2012
    โพสต์
    332
    Thanks
    0
    Thanked 0 Times in 0 Posts
    ขอบคุณครับ

+ ตอบกลับกระทู้

ข้อมูลกระทู้

Users Browsing this Thread

ในขณะนี้มี 1 ท่านดูกระทู้อยู่. (0 สมาชิกและ 1 ผู้เยี่ยมชม)

     

กฎการโพสต์ข้อความ

  • ท่าน ไม่สามารถ ตั้งกระทู้ใหม่ได้
  • ท่าน ไม่สามารถ ตอบกระทู้ได้
  • ท่าน ไม่สามารถ แนบไฟล์ได้
  • ท่าน ไม่สามารถ แก้ไขข้อความโพสต์ได้
  • BB code สถานะ เปิด
  • Smilies สถานะ เปิด
  • [IMG] สถานะ เปิด
  • HTML สถานะ ปิด