+ ตอบกลับกระทู้
สรุปผลการค้นหา 1 ถึง 4 จากทั้งหมด 4
  1. #1
    Administrators รูปส่วนตัว Duckload.us
    สมัครเมื่อ
    Dec 2010
    โพสต์
    152,670
    Thanks
    7
    Thanked 159,850 Times in 69,922 Posts

    Question [ฝรั่ง]->> The Complete History of Friday the 13th (1980-1993) ศุกร์ 13 ฝันหวาน ภาค 1-9 ครบชุด / พากย์ไทย-อังกฤษ + ซับอังกฤษ-ไทย PGS คมชัดสุดๆ-Blu-ray.H.264.1080p. [Modified]-[พากย์ไทย บรรยายไทย]





    ศุกร์ 13 ฝันหวาน เป็น แฟรนไชส์ของ ภาพยนตร์สยองขวัญ ประกอบไปด้วย ภาพยนตร์สยองขวัญแนวไล่เชือด จำนวนสิบสองภาค ภาพยนตร์โทรทัศน์ หนังสือนวนิยาย หนังสือการ์ตูนคอมมิค วีดีโอเกม และสินค้าจากภาพยนตร์ โดยเนื้อเรื่องส่วนใหญ่เน้นไปที่ เจสัน วอร์ฮีส์ซึ่งเป็นเด็กผู้ชายที่จมน้ำตายในค่าย คริสตัลเลค เนื่องจากความประมาทของพนักงานในค่ายที่ละเลย ทศวรรษต่อมาได้มีข่าวลือว่าทะเลสาบแห่งนี้ถูก สาปแช่ง และเป็นสถานที่ที่มีการฆาตกรรมหมู่ เจสันปรากฏในภาพยนตร์ทั้งหมด ไม่ว่าจะเป็นทั้งนักฆ่าหรือแรงจูงใจในการฆ่า ภาพยนตร์ดั้งเดิมเขียนบทโดย วิคเตอร์ มิลเลอร์ และได้รับการผลิตและกำกับโดย ฌอน เอส คันนิงแฮม อย่างไรก็ตามทั้งคู่ไม่ได้กลับไปเขียนหรือกำกับภาคต่ อใด ๆ ภาพยนตร์เรื่องนี้ทำรายได้กว่า 465,000,000 ดอลลาร์สหรัฐ ในบ็อกซ์ออฟฟิศทั่วโลก ศุกร์ 13 เรื่องแรกได้สร้างขึ้นตาม ฮาโลวีน (1978) ที่ประสบความสำเร็จเป็นอย่างมาก และความสำเร็จของ ศุกร์ 13 เองนั้นทำให้พาราเมาต์พิกเจอส์ซื้อลิขสิทธิ์ของ ศุกร์ 13 มา แฟรงก์ แมนคูโซ จูเนียร์ ซึ่งเป็นผู้ผลิตภาพยนตร์ ยังได้สร้างรายการโทรทัศน์ วันศุกร์ที่ 13: เดอะซีรีส์ หลังจากค่ายพาราเมาต์เปิดตัว ศุกร์ 13 ภาค 6: ชีวิตของเจสัน ทีวีซีรีส์มีเนื้อเรื่องที่ไม่ได้ต่อเนื่องกับแฟรนไช ส์ ทั้งตัวละครและเนื้อหา แต่สร้างขึ้นบนพื้นฐานความคิดของ ความโชคไม่ดีและคำสาปแช่ง ซึ่งเป็นสัญลักษณ์ของภาพยนตร์เรื่องนี้ ในขณะที่แฟรนไชส์เป็นของพาราเมาต์ ภาพยนตร์สี่เรื่องได้ถูกนำมาดัดแปลงเป็นนวนิยาย โดยศุกร์ 13 ภาค 3 ได้ถูกนำมาดัดแปลงจากนักเขียน 2 โดยแยกกัน เมื่อภาพยนตร์ถูกขายให้กับนิวไลน์ซินีมา คันนิงแฮมได้กลับมาเป็นผู้ผลิตและดูแลภาพยนตร์ 2 เรื่องและภาพยนตร์ข้ามฝั่งซึ่งมีตัวละครเฟรดดี้ ครูเกอร์จาก ซีรีส์ภาพยนตร์ฝันร้ายบนถนนเอล์ม ภายใต้นิวไลน์ซินีมา ได้มีการตีพิมพ์นวนิยายเรื่องสั้น 13 เรื่องและหนังสือการ์ตูนคอมมิค ชุดต่าง ๆ ซึ่งมีการปรากฏตัวของเจสัน วอร์ฮีส์

    แม้ว่าจะเป็นภาพยนตร์ที่ไม่เป็นที่นิยมในหมู่นักวิจา รณ์ ศุกร์ 13 ถือเป็นหนึ่งในภาพยนตร์ที่ประสบความสำเร็จมากที่สุดใ นอเมริกา ซึ่งไม่ได้เกิดจากความสำเร็จของภาพยนตร์เท่านั้น แต่ยังรวมถึงการขายสินค้าจากภาพยนตร์และการอ้างถึงซ้ ำหลายครั้งจากวัฒนธรรมสมัยนิยม ความนิยมของแฟรนไชส์ยังทำให้ผู้ที่ชื่นชอบสร้างภาพยน ตร์ ศุกร์ 13 ของพวกเขาเอง โดยจำลองแบบเครื่องแต่งกายเจสัน วอร์ฮีส์ และสักงานศิลปะจากเรื่อง ศุกร์ 13 บนร่างกาย หน้ากากฮอกกี้ของเจสันยังได้กลายมาเป็นหนึ่งในภาพที่ รู้จักมากที่สุดในวัฒนธรรมสมัยนิยม

    Code:
    General
    Unique ID                      : 124848853496098952279607621194353263717
    Complete name                  : 1980-Friday the 13th Part 1 A Long Night at Camp Blood (1980) ศุกร์ 13 ฝันหวาน ภาค 1.mkv
    Format                         : Matroska
    Format version                 : Version 4 / Version 2
    File size                      : 6.97 GiB
    Duration                       : 1 h 35 min
    Overall bit rate               : 10.5 Mb/s
    Movie name                     : Friday.The.13th.Part.1.A.Long.Night.at.Camp.Blood.1980.1080p.BluRay.AVC.8bit.DD5.1.x264-P4TiP4T
    Encoded date                   : UTC 2020-06-06 14:50:31
    Writing application            : mkvmerge v47.0.0 ('Black Flag') 64-bit
    Writing library                : libebml v1.3.10 + libmatroska v1.5.2
    Cover                          : Yes
    Attachments                    : cover
    
    Video
    ID                             : 1
    Format                         : AVC
    Format/Info                    : Advanced Video Codec
    Format profile                 : [email protected]
    Format settings, CABAC         : Yes
    Format settings, RefFrames     : 4 frames
    Codec ID                       : V_MPEG4/ISO/AVC
    Duration                       : 1 h 35 min
    Bit rate                       : 9 199 kb/s
    Width                          : 1 920 pixels
    Height                         : 1 080 pixels
    Display aspect ratio           : 16:9
    Frame rate mode                : Constant
    Frame rate                     : 23.976 FPS
    Color space                    : YUV
    Chroma subsampling             : 4:2:0
    Bit depth                      : 8 bits
    Scan type                      : Progressive
    Bits/(Pixel*Frame)             : 0.185
    Stream size                    : 6.13 GiB (88%)
    Writing library                : x264 core 66 r1088 71ac0a3
    Encoding settings              : cabac=1 / ref=4 / deblock=1:0:0001
    Default                        : Yes
    Forced                         : No
    
    Audio #1
    ID                             : 2
    Format                         : AC-3
    Format/Info                    : Audio Coding 3
    Format settings, Endianness    : Big
    Codec ID                       : A_AC3
    Duration                       : 1 h 35 min
    Bit rate mode                  : Constant
    Bit rate                       : 640 kb/s
    Channel(s)                     : 6 channels
    Channel positions              : Front: L C R, Side: L R, LFE
    Sampling rate                  : 48.0 kHz
    Frame rate                     : 31.250 FPS (1536 SPF)
    Bit depth                      : 16 bits
    Compression mode               : Lossy
    Stream size                    : 437 MiB (6%)
    Language                       : English
    Service kind                   : Complete Main
    Default                        : No
    Forced                         : No
    
    Audio #2
    ID                             : 3
    Format                         : AAC
    Format/Info                    : Advanced Audio Codec
    Format profile                 : LC
    Codec ID                       : A_AAC
    Duration                       : 1 h 35 min
    Bit rate                       : 224 kb/s
    Channel(s)                     : 6 channels
    Channel positions              : Front: L C R, Side: L R, LFE
    Sampling rate                  : 48.0 kHz
    Frame rate                     : 46.875 FPS (1024 SPF)
    Compression mode               : Lossy
    Stream size                    : 153 MiB (2%)
    Language                       : English
    Default                        : No
    Forced                         : No
    
    Audio #3
    ID                             : 4
    Format                         : AC-3
    Format/Info                    : Audio Coding 3
    Format settings, Endianness    : Big
    Codec ID                       : A_AC3
    Duration                       : 1 h 35 min
    Bit rate mode                  : Constant
    Bit rate                       : 384 kb/s
    Channel(s)                     : 6 channels
    Channel positions              : Front: L C R, Side: L R, LFE
    Sampling rate                  : 48.0 kHz
    Frame rate                     : 31.250 FPS (1536 SPF)
    Bit depth                      : 16 bits
    Compression mode               : Lossy
    Stream size                    : 262 MiB (4%)
    Language                       : Thai
    Service kind                   : Complete Main
    Default                        : Yes
    Forced                         : Yes
    
    Text #1
    ID                             : 5
    Format                         : UTF-8
    Codec ID                       : S_TEXT/UTF8
    Codec ID/Info                  : UTF-8 Plain Text
    Duration                       : 1 h 29 min
    Bit rate                       : 27 b/s
    Count of elements              : 540
    Stream size                    : 18.1 KiB (0%)
    Language                       : English
    Default                        : No
    Forced                         : No
    
    Text #2
    ID                             : 6
    Format                         : UTF-8
    Codec ID                       : S_TEXT/UTF8
    Codec ID/Info                  : UTF-8 Plain Text
    Duration                       : 1 h 34 min
    Bit rate                       : 28 b/s
    Count of elements              : 608
    Stream size                    : 20.0 KiB (0%)
    Title                          : SDH
    Language                       : English
    Default                        : No
    Forced                         : No
    
    Text #3
    ID                             : 7
    Format                         : UTF-8
    Codec ID                       : S_TEXT/UTF8
    Codec ID/Info                  : UTF-8 Plain Text
    Duration                       : 1 h 31 min
    Bit rate                       : 65 b/s
    Count of elements              : 543
    Stream size                    : 43.9 KiB (0%)
    Language                       : Thai
    Default                        : No
    Forced                         : No
    
    Text #4
    ID                             : 8
    Format                         : PGS
    Muxing mode                    : zlib
    Codec ID                       : S_HDMV/PGS
    Codec ID/Info                  : Picture based subtitle format used on BDs/HD-DVDs
    Duration                       : 1 h 31 min
    Bit rate                       : 20.0 kb/s
    Count of elements              : 1086
    Stream size                    : 13.2 MiB (0%)
    Language                       : Thai
    Default                        : Yes
    Forced                         : Yes
    
    
    ค.ศ. 1981 – Friday the 13th: Part 2 ศุกร์ 13 ฝันหวานภาค 2
    
    :zeza-SirensJY2U:*ดู INFO Report คลิ๊ก!*
    General
    Unique ID                      : 305884677055160758088312418701020377778
    Complete name                  : 1981-Friday the 13th Part 2 Jason (1981) ศุกร์ 13 ฝันหวาน ภาค 2.mkv
    Format                         : Matroska
    Format version                 : Version 4 / Version 2
    File size                      : 6.94 GiB
    Duration                       : 1 h 26 min
    Overall bit rate               : 11.4 Mb/s
    Movie name                     : Friday.The.13th.Part.2.Jason.1981.1080p.BluRay.AVC.8bit.DD5.1.x264-P4TiP4T
    Encoded date                   : UTC 2020-06-06 15:02:44
    Writing application            : mkvmerge v47.0.0 ('Black Flag') 64-bit
    Writing library                : libebml v1.3.10 + libmatroska v1.5.2
    Cover                          : Yes
    Attachments                    : cover
    
    Video
    ID                             : 1
    Format                         : AVC
    Format/Info                    : Advanced Video Codec
    Format profile                 : [email protected]
    Format settings, CABAC         : Yes
    Format settings, RefFrames     : 4 frames
    Codec ID                       : V_MPEG4/ISO/AVC
    Duration                       : 1 h 26 min
    Bit rate                       : 10.2 Mb/s
    Width                          : 1 920 pixels
    Height                         : 1 080 pixels
    Display aspect ratio           : 16:9
    Frame rate mode                : Constant
    Frame rate                     : 23.976 FPS
    Color space                    : YUV
    Chroma subsampling             : 4:2:0
    Bit depth                      : 8 bits
    Scan type                      : Progressive
    Bits/(Pixel*Frame)             : 0.204
    Stream size                    : 6.17 GiB (89%)
    Writing library                : x264 core 66 r1101M b69548a
    Encoding settings              : cabac=1 / ref=4 / deblock=1:0:0002
    Default                        : Yes
    Forced                         : No
    
    Audio #1
    ID                             : 2
    Format                         : AC-3
    Format/Info                    : Audio Coding 3
    Format settings, Endianness    : Big
    Codec ID                       : A_AC3
    Duration                       : 1 h 26 min
    Bit rate mode                  : Constant
    Bit rate                       : 640 kb/s
    Channel(s)                     : 6 channels
    Channel positions              : Front: L C R, Side: L R, LFE
    Sampling rate                  : 48.0 kHz
    Frame rate                     : 31.250 FPS (1536 SPF)
    Bit depth                      : 16 bits
    Compression mode               : Lossy
    Stream size                    : 398 MiB (6%)
    Language                       : English
    Service kind                   : Complete Main
    Default                        : No
    Forced                         : No
    
    Audio #2
    ID                             : 3
    Format                         : AAC
    Format/Info                    : Advanced Audio Codec
    Format profile                 : LC
    Codec ID                       : A_AAC
    Duration                       : 1 h 26 min
    Bit rate                       : 224 kb/s
    Channel(s)                     : 6 channels
    Channel positions              : Front: L C R, Side: L R, LFE
    Sampling rate                  : 48.0 kHz
    Frame rate                     : 46.875 FPS (1024 SPF)
    Compression mode               : Lossy
    Stream size                    : 139 MiB (2%)
    Language                       : English
    Default                        : No
    Forced                         : No
    
    Audio #3
    ID                             : 4
    Format                         : AC-3
    Format/Info                    : Audio Coding 3
    Format settings, Endianness    : Big
    Codec ID                       : A_AC3
    Duration                       : 1 h 26 min
    Bit rate mode                  : Constant
    Bit rate                       : 384 kb/s
    Channel(s)                     : 6 channels
    Channel positions              : Front: L C R, Side: L R, LFE
    Sampling rate                  : 48.0 kHz
    Frame rate                     : 31.250 FPS (1536 SPF)
    Bit depth                      : 16 bits
    Compression mode               : Lossy
    Stream size                    : 239 MiB (3%)
    Language                       : Thai
    Service kind                   : Complete Main
    Default                        : Yes
    Forced                         : Yes
    
    Text #1
    ID                             : 5
    Format                         : UTF-8
    Codec ID                       : S_TEXT/UTF8
    Codec ID/Info                  : UTF-8 Plain Text
    Duration                       : 1 h 24 min
    Bit rate                       : 27 b/s
    Count of elements              : 536
    Stream size                    : 17.2 KiB (0%)
    Language                       : English
    Default                        : No
    Forced                         : No
    
    Text #2
    ID                             : 6
    Format                         : UTF-8
    Codec ID                       : S_TEXT/UTF8
    Codec ID/Info                  : UTF-8 Plain Text
    Duration                       : 1 h 26 min
    Bit rate                       : 24 b/s
    Count of elements              : 543
    Stream size                    : 15.7 KiB (0%)
    Language                       : Swedish
    Default                        : No
    Forced                         : No
    
    Text #3
    ID                             : 7
    Format                         : UTF-8
    Codec ID                       : S_TEXT/UTF8
    Codec ID/Info                  : UTF-8 Plain Text
    Duration                       : 1 h 26 min
    Bit rate                       : 23 b/s
    Count of elements              : 541
    Stream size                    : 15.0 KiB (0%)
    Language                       : Norwegian
    Default                        : No
    Forced                         : No
    
    Text #4
    ID                             : 8
    Format                         : UTF-8
    Codec ID                       : S_TEXT/UTF8
    Codec ID/Info                  : UTF-8 Plain Text
    Duration                       : 1 h 26 min
    Bit rate                       : 26 b/s
    Count of elements              : 541
    Stream size                    : 16.9 KiB (0%)
    Language                       : Danish
    Default                        : No
    Forced                         : No
    
    Text #5
    ID                             : 9
    Format                         : UTF-8
    Codec ID                       : S_TEXT/UTF8
    Codec ID/Info                  : UTF-8 Plain Text
    Duration                       : 1 h 26 min
    Bit rate                       : 27 b/s
    Count of elements              : 539
    Stream size                    : 17.1 KiB (0%)
    Language                       : Finnish
    Default                        : No
    Forced                         : No
    
    Text #6
    ID                             : 10
    Format                         : UTF-8
    Codec ID                       : S_TEXT/UTF8
    Codec ID/Info                  : UTF-8 Plain Text
    Duration                       : 1 h 26 min
    Bit rate                       : 26 b/s
    Count of elements              : 543
    Stream size                    : 16.9 KiB (0%)
    Language                       : Spanish
    Default                        : No
    Forced                         : No
    
    Text #7
    ID                             : 11
    Format                         : UTF-8
    Codec ID                       : S_TEXT/UTF8
    Codec ID/Info                  : UTF-8 Plain Text
    Duration                       : 1 h 26 min
    Bit rate                       : 26 b/s
    Count of elements              : 541
    Stream size                    : 16.6 KiB (0%)
    Language                       : Dutch
    Default                        : No
    Forced                         : No
    
    Text #8
    ID                             : 12
    Format                         : UTF-8
    Codec ID                       : S_TEXT/UTF8
    Codec ID/Info                  : UTF-8 Plain Text
    Duration                       : 1 h 26 min
    Bit rate                       : 29 b/s
    Count of elements              : 543
    Stream size                    : 18.8 KiB (0%)
    Language                       : German
    Default                        : No
    Forced                         : No
    
    Text #9
    ID                             : 13
    Format                         : UTF-8
    Codec ID                       : S_TEXT/UTF8
    Codec ID/Info                  : UTF-8 Plain Text
    Duration                       : 1 h 26 min
    Bit rate                       : 26 b/s
    Count of elements              : 544
    Stream size                    : 16.9 KiB (0%)
    Language                       : Italian
    Default                        : No
    Forced                         : No
    
    Text #10
    ID                             : 14
    Format                         : UTF-8
    Codec ID                       : S_TEXT/UTF8
    Codec ID/Info                  : UTF-8 Plain Text
    Duration                       : 1 h 23 min
    Bit rate                       : 63 b/s
    Count of elements              : 617
    Stream size                    : 38.7 KiB (0%)
    Language                       : Thai
    Default                        : No
    Forced                         : No
    
    Text #11
    ID                             : 15
    Format                         : PGS
    Muxing mode                    : zlib
    Codec ID                       : S_HDMV/PGS
    Codec ID/Info                  : Picture based subtitle format used on BDs/HD-DVDs
    Duration                       : 1 h 23 min
    Bit rate                       : 20.9 kb/s
    Count of elements              : 1234
    Stream size                    : 12.5 MiB (0%)
    Language                       : Thai
    Default                        : Yes
    Forced                         : Yes
    
    
    ค.ศ. 1982 – Friday the 13th: Part 3 ศุกร์ 13 ฝันหวาน ภาค 3
    
    :zeza-SirensJY2U:*ดู INFO Report คลิ๊ก!*
    General
    Unique ID                      : 278870729849838887614369099617523723092
    Complete name                  : 1982-Friday the 13th Part 3 3D (1982) ศุกร์ 13 ฝันหวาน ภาค 3.mkv
    Format                         : Matroska
    Format version                 : Version 4 / Version 2
    File size                      : 9.52 GiB
    Duration                       : 1 h 35 min
    Overall bit rate               : 14.3 Mb/s
    Movie name                     : Friday.The.13th.Part.3.3D.1982.iNTERNAL.1080p.BluRay.AVC.8bit.DD5.1.x264-P4TiP4T
    Encoded date                   : UTC 2020-06-06 16:00:58
    Writing application            : mkvmerge v47.0.0 ('Black Flag') 64-bit
    Writing library                : libebml v1.3.10 + libmatroska v1.5.2
    Cover                          : Yes
    Attachments                    : cover
    
    Video
    ID                             : 1
    Format                         : AVC
    Format/Info                    : Advanced Video Codec
    Format profile                 : [email protected]
    Format settings, CABAC         : Yes
    Format settings, RefFrames     : 5 frames
    Codec ID                       : V_MPEG4/ISO/AVC
    Duration                       : 1 h 35 min
    Bit rate                       : 13.1 Mb/s
    Width                          : 1 920 pixels
    Height                         : 818 pixels
    Display aspect ratio           : 2.35:1
    Frame rate mode                : Constant
    Frame rate                     : 23.976 (24000/1001) FPS
    Color space                    : YUV
    Chroma subsampling             : 4:2:0
    Bit depth                      : 8 bits
    Scan type                      : Progressive
    Bits/(Pixel*Frame)             : 0.347
    Stream size                    : 8.69 GiB (91%)
    Writing library                : x264 core 142 r2453 ea0ca51
    Encoding settings              : cabac=1 / ref=5 / deblock=1:0:0003
    Default                        : Yes
    Forced                         : No
    
    Audio #1
    ID                             : 2
    Format                         : AC-3
    Format/Info                    : Audio Coding 3
    Format settings, Endianness    : Big
    Codec ID                       : A_AC3
    Duration                       : 1 h 35 min
    Bit rate mode                  : Constant
    Bit rate                       : 640 kb/s
    Channel(s)                     : 6 channels
    Channel positions              : Front: L C R, Side: L R, LFE
    Sampling rate                  : 48.0 kHz
    Frame rate                     : 31.250 FPS (1536 SPF)
    Bit depth                      : 16 bits
    Compression mode               : Lossy
    Stream size                    : 436 MiB (4%)
    Language                       : English
    Service kind                   : Complete Main
    Default                        : No
    Forced                         : No
    
    Audio #2
    ID                             : 3
    Format                         : AAC
    Format/Info                    : Advanced Audio Codec
    Format profile                 : LC
    Codec ID                       : A_AAC
    Duration                       : 1 h 35 min
    Bit rate                       : 224 kb/s
    Channel(s)                     : 6 channels
    Channel positions              : Front: L C R, Side: L R, LFE
    Sampling rate                  : 48.0 kHz
    Frame rate                     : 46.875 FPS (1024 SPF)
    Compression mode               : Lossy
    Stream size                    : 153 MiB (2%)
    Language                       : English
    Default                        : No
    Forced                         : No
    
    Audio #3
    ID                             : 4
    Format                         : AC-3
    Format/Info                    : Audio Coding 3
    Format settings, Endianness    : Big
    Codec ID                       : A_AC3
    Duration                       : 1 h 35 min
    Bit rate mode                  : Constant
    Bit rate                       : 384 kb/s
    Channel(s)                     : 6 channels
    Channel positions              : Front: L C R, Side: L R, LFE
    Sampling rate                  : 48.0 kHz
    Frame rate                     : 31.250 FPS (1536 SPF)
    Bit depth                      : 16 bits
    Compression mode               : Lossy
    Stream size                    : 261 MiB (3%)
    Language                       : Thai
    Service kind                   : Complete Main
    Default                        : Yes
    Forced                         : Yes
    
    Text #1
    ID                             : 5
    Format                         : UTF-8
    Codec ID                       : S_TEXT/UTF8
    Codec ID/Info                  : UTF-8 Plain Text
    Duration                       : 1 h 30 min
    Bit rate                       : 30 b/s
    Count of elements              : 705
    Stream size                    : 20.0 KiB (0%)
    Language                       : English
    Default                        : No
    Forced                         : No
    
    Text #2
    ID                             : 6
    Format                         : UTF-8
    Codec ID                       : S_TEXT/UTF8
    Codec ID/Info                  : UTF-8 Plain Text
    Duration                       : 1 h 30 min
    Bit rate                       : 34 b/s
    Count of elements              : 902
    Stream size                    : 22.8 KiB (0%)
    Title                          : SDH
    Language                       : English
    Default                        : No
    Forced                         : No
    
    Text #3
    ID                             : 7
    Format                         : UTF-8
    Codec ID                       : S_TEXT/UTF8
    Codec ID/Info                  : UTF-8 Plain Text
    Duration                       : 1 h 30 min
    Bit rate                       : 68 b/s
    Count of elements              : 704
    Stream size                    : 45.5 KiB (0%)
    Language                       : Thai
    Default                        : No
    Forced                         : No
    
    Text #4
    ID                             : 8
    Format                         : PGS
    Muxing mode                    : zlib
    Codec ID                       : S_HDMV/PGS
    Codec ID/Info                  : Picture based subtitle format used on BDs/HD-DVDs
    Duration                       : 1 h 30 min
    Bit rate                       : 22.6 kb/s
    Count of elements              : 1408
    Stream size                    : 14.6 MiB (0%)
    Language                       : Thai
    Default                        : Yes
    Forced                         : Yes
    
    
    ค.ศ. 1984 – Friday the 13th: The Final Chapter ศุกร์ 13 ฝันหวาน ภาค 4 (บทสุดท้ายแล้วนะ)
    
    :zeza-SirensJY2U:*ดู INFO Report คลิ๊ก!*
    General
    Unique ID                      : 246244120969178369461208476120703907553
    Complete name                  : 1984-Friday the 13th Part 4 The Final Chapter (1984) ศุกร์ 13 ฝันหวาน ภาค 4.mkv
    Format                         : Matroska
    Format version                 : Version 4 / Version 2
    File size                      : 8.04 GiB
    Duration                       : 1 h 31 min
    Overall bit rate               : 12.6 Mb/s
    Movie name                     : Friday.The.13th.Part.4.The.Final.Chapter.1984.1080p.BluRay.AVC.8bit.DTS.x264-P4TiP4T
    Encoded date                   : UTC 2020-06-09 14:45:13
    Writing application            : mkvmerge v47.0.0 ('Black Flag') 64-bit
    Writing library                : libebml v1.3.10 + libmatroska v1.5.2
    Cover                          : Yes
    Attachments                    : cover
    
    Video
    ID                             : 1
    Format                         : AVC
    Format/Info                    : Advanced Video Codec
    Format profile                 : [email protected]
    Format settings, CABAC         : Yes
    Format settings, RefFrames     : 4 frames
    Codec ID                       : V_MPEG4/ISO/AVC
    Duration                       : 1 h 31 min
    Bit rate                       : 10.5 Mb/s
    Width                          : 1 920 pixels
    Height                         : 1 080 pixels
    Display aspect ratio           : 16:9
    Frame rate mode                : Constant
    Frame rate                     : 23.976 (24000/1001) FPS
    Color space                    : YUV
    Chroma subsampling             : 4:2:0
    Bit depth                      : 8 bits
    Scan type                      : Progressive
    Bits/(Pixel*Frame)             : 0.210
    Stream size                    : 6.68 GiB (83%)
    Writing library                : x264 core 142 r2409 d6b4e63
    Encoding settings              : cabac=1 / ref=4 / deblock=1:0:0004
    Default                        : Yes
    Forced                         : No
    
    Audio #1
    ID                             : 2
    Format                         : DTS
    Format/Info                    : Digital Theater Systems
    Mode                           : 16
    Format settings, Endianness    : Big
    Codec ID                       : A_DTS
    Duration                       : 1 h 31 min
    Bit rate mode                  : Constant
    Bit rate                       : 1 509 kb/s
    Channel(s)                     : 6 channels
    Channel positions              : Front: L C R, Side: L R, LFE
    Sampling rate                  : 48.0 kHz
    Frame rate                     : 93.750 FPS (512 SPF)
    Bit depth                      : 24 bits
    Compression mode               : Lossy
    Stream size                    : 987 MiB (12%)
    Language                       : English
    Default                        : No
    Forced                         : No
    
    Audio #2
    ID                             : 3
    Format                         : AAC
    Format/Info                    : Advanced Audio Codec
    Format profile                 : LC
    Codec ID                       : A_AAC
    Duration                       : 1 h 31 min
    Bit rate                       : 224 kb/s
    Channel(s)                     : 6 channels
    Channel positions              : Front: L C R, Side: L R, LFE
    Sampling rate                  : 48.0 kHz
    Frame rate                     : 46.875 FPS (1024 SPF)
    Compression mode               : Lossy
    Stream size                    : 146 MiB (2%)
    Language                       : English
    Default                        : No
    Forced                         : No
    
    Audio #3
    ID                             : 4
    Format                         : AC-3
    Format/Info                    : Audio Coding 3
    Format settings, Endianness    : Big
    Codec ID                       : A_AC3
    Duration                       : 1 h 31 min
    Bit rate mode                  : Constant
    Bit rate                       : 384 kb/s
    Channel(s)                     : 6 channels
    Channel positions              : Front: L C R, Side: L R, LFE
    Sampling rate                  : 48.0 kHz
    Frame rate                     : 31.250 FPS (1536 SPF)
    Bit depth                      : 16 bits
    Compression mode               : Lossy
    Stream size                    : 251 MiB (3%)
    Language                       : Thai
    Service kind                   : Complete Main
    Default                        : Yes
    Forced                         : Yes
    
    Text #1
    ID                             : 5
    Format                         : UTF-8
    Codec ID                       : S_TEXT/UTF8
    Codec ID/Info                  : UTF-8 Plain Text
    Duration                       : 1 h 30 min
    Bit rate                       : 31 b/s
    Count of elements              : 764
    Stream size                    : 20.8 KiB (0%)
    Title                          : Regular
    Language                       : English
    Default                        : No
    Forced                         : No
    
    Text #2
    ID                             : 6
    Format                         : UTF-8
    Codec ID                       : S_TEXT/UTF8
    Codec ID/Info                  : UTF-8 Plain Text
    Duration                       : 1 h 30 min
    Bit rate                       : 31 b/s
    Count of elements              : 764
    Stream size                    : 20.8 KiB (0%)
    Language                       : English
    Default                        : No
    Forced                         : No
    
    Text #3
    ID                             : 7
    Format                         : UTF-8
    Codec ID                       : S_TEXT/UTF8
    Codec ID/Info                  : UTF-8 Plain Text
    Duration                       : 1 h 27 min
    Bit rate                       : 61 b/s
    Count of elements              : 627
    Stream size                    : 39.3 KiB (0%)
    Language                       : Thai
    Default                        : No
    Forced                         : No
    
    Text #4
    ID                             : 8
    Format                         : PGS
    Muxing mode                    : zlib
    Codec ID                       : S_HDMV/PGS
    Codec ID/Info                  : Picture based subtitle format used on BDs/HD-DVDs
    Duration                       : 1 h 27 min
    Bit rate                       : 20.6 kb/s
    Count of elements              : 1254
    Stream size                    : 12.9 MiB (0%)
    Language                       : Thai
    Default                        : Yes
    Forced                         : Yes
    
    
    ค.ศ. 1985 – Friday the 13th: A New Beginning ศุกร์ 13 ฝันหวาน ภาค 5 (กลับมาผงาดอีกครั้ง)
    
    :zeza-SirensJY2U:*ดู INFO Report คลิ๊ก!*
    General
    Unique ID                      : 146261159251536195897606427330799203913
    Complete name                  : 1985-Friday the 13th Part 5 A New Beginning (1985) ศุกร์ 13 ฝันหวาน ภาค 5.mkv
    Format                         : Matroska
    Format version                 : Version 4 / Version 2
    File size                      : 8.04 GiB
    Duration                       : 1 h 32 min
    Overall bit rate               : 12.5 Mb/s
    Movie name                     : Friday.The.13th.Part.5.A.New.Beginning.1985.1080p.BluRay.AVC.8bit.DTS.x264-P4TiP4T
    Encoded date                   : UTC 2020-06-08 17:51:17
    Writing application            : mkvmerge v47.0.0 ('Black Flag') 64-bit
    Writing library                : libebml v1.3.10 + libmatroska v1.5.2
    Cover                          : Yes
    Attachments                    : cover
    
    Video
    ID                             : 1
    Format                         : AVC
    Format/Info                    : Advanced Video Codec
    Format profile                 : [email protected]
    Format settings, CABAC         : Yes
    Format settings, RefFrames     : 4 frames
    Codec ID                       : V_MPEG4/ISO/AVC
    Duration                       : 1 h 32 min
    Bit rate                       : 10.4 Mb/s
    Width                          : 1 920 pixels
    Height                         : 1 080 pixels
    Display aspect ratio           : 16:9
    Frame rate mode                : Constant
    Frame rate                     : 23.976 (24000/1001) FPS
    Color space                    : YUV
    Chroma subsampling             : 4:2:0
    Bit depth                      : 8 bits
    Scan type                      : Progressive
    Bits/(Pixel*Frame)             : 0.208
    Stream size                    : 6.67 GiB (83%)
    Writing library                : x264 core 142 r2409 d6b4e63
    Encoding settings              : cabac=1 / ref=4 / deblock=1:0:0005
    Default                        : Yes
    Forced                         : No
    
    Audio #1
    ID                             : 2
    Format                         : DTS
    Format/Info                    : Digital Theater Systems
    Mode                           : 16
    Format settings, Endianness    : Big
    Codec ID                       : A_DTS
    Duration                       : 1 h 32 min
    Bit rate mode                  : Constant
    Bit rate                       : 1 509 kb/s
    Channel(s)                     : 6 channels
    Channel positions              : Front: L C R, Side: L R, LFE
    Sampling rate                  : 48.0 kHz
    Frame rate                     : 93.750 FPS (512 SPF)
    Bit depth                      : 24 bits
    Compression mode               : Lossy
    Stream size                    : 996 MiB (12%)
    Language                       : English
    Default                        : No
    Forced                         : No
    
    Audio #2
    ID                             : 3
    Format                         : AAC
    Format/Info                    : Advanced Audio Codec
    Format profile                 : LC
    Codec ID                       : A_AAC
    Duration                       : 1 h 32 min
    Bit rate                       : 224 kb/s
    Channel(s)                     : 6 channels
    Channel positions              : Front: L C R, Side: L R, LFE
    Sampling rate                  : 48.0 kHz
    Frame rate                     : 46.875 FPS (1024 SPF)
    Compression mode               : Lossy
    Stream size                    : 148 MiB (2%)
    Language                       : English
    Default                        : No
    Forced                         : No
    
    Audio #3
    ID                             : 4
    Format                         : AC-3
    Format/Info                    : Audio Coding 3
    Format settings, Endianness    : Big
    Codec ID                       : A_AC3
    Duration                       : 1 h 32 min
    Bit rate mode                  : Constant
    Bit rate                       : 384 kb/s
    Channel(s)                     : 6 channels
    Channel positions              : Front: L C R, Side: L R, LFE
    Sampling rate                  : 48.0 kHz
    Frame rate                     : 31.250 FPS (1536 SPF)
    Bit depth                      : 16 bits
    Compression mode               : Lossy
    Stream size                    : 253 MiB (3%)
    Language                       : Thai
    Service kind                   : Complete Main
    Default                        : Yes
    Forced                         : Yes
    
    Text #1
    ID                             : 5
    Format                         : UTF-8
    Codec ID                       : S_TEXT/UTF8
    Codec ID/Info                  : UTF-8 Plain Text
    Duration                       : 1 h 31 min
    Bit rate                       : 35 b/s
    Count of elements              : 789
    Stream size                    : 23.8 KiB (0%)
    Language                       : English
    Default                        : No
    Forced                         : No
    
    Text #2
    ID                             : 6
    Format                         : UTF-8
    Codec ID                       : S_TEXT/UTF8
    Codec ID/Info                  : UTF-8 Plain Text
    Duration                       : 1 h 27 min
    Bit rate                       : 65 b/s
    Count of elements              : 579
    Stream size                    : 42.2 KiB (0%)
    Language                       : Thai
    Default                        : No
    Forced                         : No
    
    Text #3
    ID                             : 7
    Format                         : PGS
    Muxing mode                    : zlib
    Codec ID                       : S_HDMV/PGS
    Codec ID/Info                  : Picture based subtitle format used on BDs/HD-DVDs
    Duration                       : 1 h 27 min
    Bit rate                       : 20.6 kb/s
    Count of elements              : 1158
    Stream size                    : 12.9 MiB (0%)
    Language                       : Thai
    Default                        : Yes
    Forced                         : Yes
    
    
    ค.ศ. 1986 – Friday the 13th Part VI: Jason Lives ศุกร์ 13 ฝันหวาน ภาค 6 ตอน เจสันคืนชีพ (ยังๆ ยังไม่ตาย)
    
    :zeza-SirensJY2U:*ดู INFO Report คลิ๊ก!*
    General
    Unique ID                      : 339560218405451044448503402341906308315
    Complete name                  : 1986-Friday the 13th Part 6 Jason Lives (1986) ศุกร์ 13 ฝันหวาน ภาค 6 เจสันคืนชีพ.mkv
    Format                         : Matroska
    Format version                 : Version 4 / Version 2
    File size                      : 7.88 GiB
    Duration                       : 1 h 27 min
    Overall bit rate               : 12.9 Mb/s
    Movie name                     : Friday.The.13th.Part.6.Jason.Lives.1986.1080p.BluRay.AVC.8bit.DTS.x264-P4TiP4T
    Encoded date                   : UTC 2020-06-08 18:29:03
    Writing application            : mkvmerge v47.0.0 ('Black Flag') 64-bit
    Writing library                : libebml v1.3.10 + libmatroska v1.5.2
    Cover                          : Yes
    Attachments                    : cover
    
    Video
    ID                             : 1
    Format                         : AVC
    Format/Info                    : Advanced Video Codec
    Format profile                 : [email protected]
    Format settings, CABAC         : Yes
    Format settings, RefFrames     : 4 frames
    Codec ID                       : V_MPEG4/ISO/AVC
    Duration                       : 1 h 27 min
    Bit rate                       : 11.0 Mb/s
    Width                          : 1 920 pixels
    Height                         : 1 080 pixels
    Display aspect ratio           : 16:9
    Frame rate mode                : Constant
    Frame rate                     : 23.976 (24000/1001) FPS
    Color space                    : YUV
    Chroma subsampling             : 4:2:0
    Bit depth                      : 8 bits
    Scan type                      : Progressive
    Bits/(Pixel*Frame)             : 0.222
    Stream size                    : 6.72 GiB (85%)
    Writing library                : x264 core 142 r2409 d6b4e63
    Encoding settings              : cabac=1 / ref=4 / deblock=1:0:0006
    Default                        : Yes
    Forced                         : No
    
    Audio #1
    ID                             : 2
    Format                         : DTS
    Format/Info                    : Digital Theater Systems
    Mode                           : 16
    Format settings, Endianness    : Big
    Codec ID                       : A_DTS
    Duration                       : 1 h 27 min
    Bit rate mode                  : Constant
    Bit rate                       : 1 509 kb/s
    Channel(s)                     : 6 channels
    Channel positions              : Front: L C R, Side: L R, LFE
    Sampling rate                  : 48.0 kHz
    Frame rate                     : 93.750 FPS (512 SPF)
    Bit depth                      : 24 bits
    Compression mode               : Lossy
    Stream size                    : 941 MiB (12%)
    Language                       : English
    Default                        : No
    Forced                         : No
    
    Audio #2
    ID                             : 3
    Format                         : AC-3
    Format/Info                    : Audio Coding 3
    Format settings, Endianness    : Big
    Codec ID                       : A_AC3
    Duration                       : 1 h 27 min
    Bit rate mode                  : Constant
    Bit rate                       : 384 kb/s
    Channel(s)                     : 6 channels
    Channel positions              : Front: L C R, Side: L R, LFE
    Sampling rate                  : 48.0 kHz
    Frame rate                     : 31.250 FPS (1536 SPF)
    Bit depth                      : 16 bits
    Compression mode               : Lossy
    Stream size                    : 240 MiB (3%)
    Language                       : Thai
    Service kind                   : Complete Main
    Default                        : Yes
    Forced                         : Yes
    
    Text #1
    ID                             : 4
    Format                         : UTF-8
    Codec ID                       : S_TEXT/UTF8
    Codec ID/Info                  : UTF-8 Plain Text
    Duration                       : 1 h 26 min
    Bit rate                       : 44 b/s
    Count of elements              : 842
    Stream size                    : 28.4 KiB (0%)
    Language                       : English
    Default                        : No
    Forced                         : No
    
    Text #2
    ID                             : 5
    Format                         : UTF-8
    Codec ID                       : S_TEXT/UTF8
    Codec ID/Info                  : UTF-8 Plain Text
    Duration                       : 1 h 21 min
    Bit rate                       : 94 b/s
    Count of elements              : 721
    Stream size                    : 56.8 KiB (0%)
    Language                       : Thai
    Default                        : No
    Forced                         : No
    
    Text #3
    ID                             : 6
    Format                         : PGS
    Muxing mode                    : zlib
    Codec ID                       : S_HDMV/PGS
    Codec ID/Info                  : Picture based subtitle format used on BDs/HD-DVDs
    Duration                       : 1 h 21 min
    Bit rate                       : 29.3 kb/s
    Count of elements              : 1442
    Stream size                    : 17.2 MiB (0%)
    Language                       : Thai
    Default                        : Yes
    Forced                         : Yes
    
    
    ค.ศ. 1988 – Friday the 13th Part VII: The New Blood ภาค 7 ตอน ทายาทสยอง
    
    :zeza-SirensJY2U:*ดู INFO Report คลิ๊ก!*
    General
    Unique ID                      : 314299607497636324375532678969724682454
    Complete name                  : 1988-Friday the 13th Part 7 The New Blood (1988) ศุกร์ 13 ฝันหวาน ภาค 7 ทายาทสยอง.mkv
    Format                         : Matroska
    Format version                 : Version 4 / Version 2
    File size                      : 11.8 GiB
    Duration                       : 1 h 28 min
    Overall bit rate               : 19.2 Mb/s
    Movie name                     : Friday.The.13th.Part.7.The.New.Blood.1988.1080p.BluRay.AVC.8bit.DTS-HD.MA.5.1.x264-P4TiP4T
    Encoded date                   : UTC 2020-06-12 14:36:54 / UTC 2017-08-02T15:33:31Z
    Writing application            : mkvmerge v47.0.0 ('Black Flag') 64-bit
    Writing library                : libebml v1.3.10 + libmatroska v1.5.2 / Lavf57.7.2
    Cover                          : Yes
    Attachments                    : cover
    
    Video
    ID                             : 1
    Format                         : AVC
    Format/Info                    : Advanced Video Codec
    Format profile                 : [email protected]
    Format settings, CABAC         : Yes
    Format settings, RefFrames     : 4 frames
    Codec ID                       : V_MPEG4/ISO/AVC
    Duration                       : 1 h 28 min
    Nominal bit rate               : 15.0 Mb/s
    Width                          : 1 920 pixels
    Height                         : 1 080 pixels
    Display aspect ratio           : 16:9
    Frame rate mode                : Constant
    Frame rate                     : 23.976 (24000/1001) FPS
    Color space                    : YUV
    Chroma subsampling             : 4:2:0
    Bit depth                      : 8 bits
    Scan type                      : Progressive
    Bits/(Pixel*Frame)             : 0.302
    Writing library                : x264 core 148 r2708 86b7198
    Encoding settings              : cabac=1 / ref=3 / deblock=1:0:0007
    Default                        : Yes
    Forced                         : No
    Color range                    : Limited
    Color primaries                : BT.709
    Transfer characteristics       : BT.709
    Matrix coefficients            : BT.709
    Statistics Tags Issue          : mkvmerge v47.0.0 ('Black Flag') 64-bit
    FromStats_BitRate              : 14667832
    FromStats_Duration             : 01:28:17.376000000
    FromStats_FrameCount           : 127010
    FromStats_StreamSize           : 9712627997
    
    Audio #1
    ID                             : 2
    Format                         : DTS
    Format/Info                    : Digital Theater Systems
    Format profile                 : MA / Core
    Mode                           : 16
    Format settings, Endianness    : Big
    Codec ID                       : A_DTS
    Duration                       : 1 h 28 min
    Bit rate mode                  : Variable / Constant
    Bit rate                       : Unknown / 1 509 kb/s
    Channel(s)                     : 6 channels
    Channel positions              : Front: L C R, Side: L R, LFE
    Sampling rate                  : 48.0 kHz
    Frame rate                     : 93.750 FPS (512 SPF)
    Bit depth                      : 24 bits
    Compression mode               : Lossless / Lossy
    Language                       : English
    Default                        : No
    Forced                         : No
    Statistics Tags Issue          : mkvmerge v47.0.0 ('Black Flag') 64-bit
    FromStats_BitRate              : 4098775
    FromStats_Duration             : 01:28:19.286000000
    FromStats_FrameCount           : 496808
    FromStats_StreamSize           : 2715072724
    
    Audio #2
    ID                             : 3
    Format                         : AC-3
    Format/Info                    : Audio Coding 3
    Format settings, Endianness    : Big
    Codec ID                       : A_AC3
    Duration                       : 1 h 28 min
    Bit rate mode                  : Constant
    Bit rate                       : 384 kb/s
    Channel(s)                     : 6 channels
    Channel positions              : Front: L C R, Side: L R, LFE
    Sampling rate                  : 48.0 kHz
    Frame rate                     : 31.250 FPS (1536 SPF)
    Bit depth                      : 16 bits
    Compression mode               : Lossy
    Stream size                    : 243 MiB (2%)
    Language                       : Thai
    Service kind                   : Complete Main
    Default                        : Yes
    Forced                         : Yes
    Statistics Tags Issue          : mkvmerge v47.0.0 ('Black Flag') 64-bit
    FromStats_BitRate              : 384000
    FromStats_Duration             : 01:28:19.296000000
    FromStats_FrameCount           : 165603
    FromStats_StreamSize           : 254366208
    
    Text #1
    ID                             : 4
    Format                         : UTF-8
    Codec ID                       : S_TEXT/UTF8
    Codec ID/Info                  : UTF-8 Plain Text
    Language                       : English
    Default                        : No
    Forced                         : No
    Statistics Tags Issue          : mkvmerge v47.0.0 ('Black Flag') 64-bit
    FromStats_BitRate              : 37
    FromStats_Duration             : 01:27:35.291000000
    FromStats_FrameCount           : 789
    FromStats_StreamSize           : 24831
    
    Text #2
    ID                             : 5
    Format                         : PGS
    Muxing mode                    : zlib
    Codec ID                       : S_HDMV/PGS
    Codec ID/Info                  : Picture based subtitle format used on BDs/HD-DVDs
    Language                       : English
    Default                        : No
    Forced                         : No
    Statistics Tags Issue          : mkvmerge v47.0.0 ('Black Flag') 64-bit
    FromStats_BitRate              : 20978
    FromStats_Duration             : 01:27:35.292000000
    FromStats_FrameCount           : 1578
    FromStats_StreamSize           : 13781231
    
    Text #3
    ID                             : 6
    Format                         : PGS
    Muxing mode                    : zlib
    Codec ID                       : S_HDMV/PGS
    Codec ID/Info                  : Picture based subtitle format used on BDs/HD-DVDs
    Language                       : French
    Default                        : No
    Forced                         : No
    Statistics Tags Issue          : mkvmerge v47.0.0 ('Black Flag') 64-bit
    FromStats_BitRate              : 16738
    FromStats_Duration             : 01:27:35.292000000
    FromStats_FrameCount           : 1348
    FromStats_StreamSize           : 10995385
    
    Text #4
    ID                             : 7
    Format                         : PGS
    Muxing mode                    : zlib
    Codec ID                       : S_HDMV/PGS
    Codec ID/Info                  : Picture based subtitle format used on BDs/HD-DVDs
    Language                       : Spanish
    Default                        : No
    Forced                         : No
    Statistics Tags Issue          : mkvmerge v47.0.0 ('Black Flag') 64-bit
    FromStats_BitRate              : 17054
    FromStats_Duration             : 01:27:35.292000000
    FromStats_FrameCount           : 1354
    FromStats_StreamSize           : 11203370
    
    Text #5
    ID                             : 8
    Format                         : UTF-8
    Codec ID                       : S_TEXT/UTF8
    Codec ID/Info                  : UTF-8 Plain Text
    Language                       : Thai
    Default                        : No
    Forced                         : No
    Statistics Tags Issue          : mkvmerge v47.0.0 ('Black Flag') 64-bit
    FromStats_BitRate              : 79
    FromStats_Duration             : 01:24:17.259000000
    FromStats_FrameCount           : 665
    FromStats_StreamSize           : 50504
    
    Text #6
    ID                             : 9
    Format                         : PGS
    Muxing mode                    : zlib
    Codec ID                       : S_HDMV/PGS
    Codec ID/Info                  : Picture based subtitle format used on BDs/HD-DVDs
    Language                       : Thai
    Default                        : Yes
    Forced                         : Yes
    Statistics Tags Issue          : mkvmerge v47.0.0 ('Black Flag') 64-bit
    FromStats_BitRate              : 25004
    FromStats_Duration             : 01:24:17.259000000
    FromStats_FrameCount           : 1330
    FromStats_StreamSize           : 15806690
    
    
    ค.ศ. 1989 – Friday the 13th Part VIII: Jason Takes Manhattan ภาค 8 ตอน เจสันบุกแมนฮัตตัน
    
    :zeza-SirensJY2U:*ดู INFO Report คลิ๊ก!*
    General
    Unique ID                      : 142006535572612454423532925192263444731
    Complete name                  : 1989-Friday the 13th Part 8 Jason Takes Manhattan (1989) ศุกร์ 13 ฝันหวาน ภาค 8 เจสันบุกแมนฮัตตัน.mkv
    Format                         : Matroska
    Format version                 : Version 4 / Version 2
    File size                      : 9.17 GiB
    Duration                       : 1 h 40 min
    Overall bit rate               : 13.1 Mb/s
    Movie name                     : Friday.The.13th.Part.8.Jason.Takes.Manhattan.1989.1080p.BluRay.AVC.8bit.DTS.x264-P4TiP4T
    Encoded date                   : UTC 2020-06-11 12:40:01
    Writing application            : mkvmerge v47.0.0 ('Black Flag') 64-bit
    Writing library                : libebml v1.3.10 + libmatroska v1.5.2
    Cover                          : Yes
    Attachments                    : cover
    
    Video
    ID                             : 1
    Format                         : AVC
    Format/Info                    : Advanced Video Codec
    Format profile                 : [email protected]
    Format settings, CABAC         : Yes
    Format settings, RefFrames     : 4 frames
    Codec ID                       : V_MPEG4/ISO/AVC
    Duration                       : 1 h 40 min
    Bit rate                       : 10.9 Mb/s
    Width                          : 1 920 pixels
    Height                         : 1 080 pixels
    Display aspect ratio           : 16:9
    Frame rate mode                : Constant
    Frame rate                     : 23.976 (24000/1001) FPS
    Color space                    : YUV
    Chroma subsampling             : 4:2:0
    Bit depth                      : 8 bits
    Scan type                      : Progressive
    Bits/(Pixel*Frame)             : 0.220
    Stream size                    : 7.67 GiB (84%)
    Writing library                : x264 core 142 r2409 d6b4e63
    Encoding settings              : cabac=1 / ref=4 / deblock=1:0:0008
    Default                        : Yes
    Forced                         : No
    
    Audio #1
    ID                             : 2
    Format                         : DTS
    Format/Info                    : Digital Theater Systems
    Mode                           : 16
    Format settings, Endianness    : Big
    Codec ID                       : A_DTS
    Duration                       : 1 h 40 min
    Bit rate mode                  : Constant
    Bit rate                       : 1 509 kb/s
    Channel(s)                     : 6 channels
    Channel positions              : Front: L C R, Side: L R, LFE
    Sampling rate                  : 48.0 kHz
    Frame rate                     : 93.750 FPS (512 SPF)
    Bit depth                      : 24 bits
    Compression mode               : Lossy
    Stream size                    : 1.06 GiB (12%)
    Language                       : English
    Default                        : No
    Forced                         : No
    
    Audio #2
    ID                             : 3
    Format                         : AAC
    Format/Info                    : Advanced Audio Codec
    Format profile                 : LC
    Codec ID                       : A_AAC
    Duration                       : 1 h 40 min
    Bit rate                       : 224 kb/s
    Channel(s)                     : 6 channels
    Channel positions              : Front: L C R, Side: L R, LFE
    Sampling rate                  : 48.0 kHz
    Frame rate                     : 46.875 FPS (1024 SPF)
    Compression mode               : Lossy
    Stream size                    : 161 MiB (2%)
    Language                       : English
    Default                        : No
    Forced                         : No
    
    Audio #3
    ID                             : 4
    Format                         : AC-3
    Format/Info                    : Audio Coding 3
    Format settings, Endianness    : Big
    Codec ID                       : A_AC3
    Duration                       : 1 h 40 min
    Bit rate mode                  : Constant
    Bit rate                       : 384 kb/s
    Channel(s)                     : 6 channels
    Channel positions              : Front: L C R, Side: L R, LFE
    Sampling rate                  : 48.0 kHz
    Frame rate                     : 31.250 FPS (1536 SPF)
    Bit depth                      : 16 bits
    Compression mode               : Lossy
    Stream size                    : 276 MiB (3%)
    Language                       : Thai
    Service kind                   : Complete Main
    Default                        : Yes
    Forced                         : Yes
    
    Text #1
    ID                             : 5
    Format                         : UTF-8
    Codec ID                       : S_TEXT/UTF8
    Codec ID/Info                  : UTF-8 Plain Text
    Duration                       : 1 h 40 min
    Bit rate                       : 30 b/s
    Count of elements              : 746
    Stream size                    : 22.4 KiB (0%)
    Language                       : English
    Default                        : No
    Forced                         : No
    
    Text #2
    ID                             : 6
    Format                         : UTF-8
    Codec ID                       : S_TEXT/UTF8
    Codec ID/Info                  : UTF-8 Plain Text
    Duration                       : 1 h 36 min
    Bit rate                       : 62 b/s
    Count of elements              : 577
    Stream size                    : 44.1 KiB (0%)
    Language                       : Thai
    Default                        : No
    Forced                         : No
    
    Text #3
    ID                             : 7
    Format                         : PGS
    Muxing mode                    : zlib
    Codec ID                       : S_HDMV/PGS
    Codec ID/Info                  : Picture based subtitle format used on BDs/HD-DVDs
    Duration                       : 1 h 36 min
    Bit rate                       : 19.4 kb/s
    Count of elements              : 1154
    Stream size                    : 13.4 MiB (0%)
    Language                       : Thai
    Default                        : Yes
    Forced                         : Yes
    
    
    ค.ศ. 1993 – Jason Goes to Hell: The Final Friday วันศุกร์แบบนี้จะไม่มีอีกแล้ว (เค้าว่ามางี้)
    
    :zeza-SirensJY2U:*ดู INFO Report คลิ๊ก!*
    General
    Unique ID                      : 35510311114019544915740006489417567637
    Complete name                  : 1993-Jason Goes to Hell The Final Friday (1993) ศุกร์ 13 ฝันหวาน ภาค 9 วันศุกร์แบบนี้จะไม่มีอีกแล้ว.mkv
    Format                         : Matroska
    Format version                 : Version 4 / Version 2
    File size                      : 11.9 GiB
    Duration                       : 1 h 27 min
    Overall bit rate               : 19.4 Mb/s
    Movie name                     : Jason.Goes.To.Hell.The.Final.Friday.1993.1080p.BluRay.AVC.8bit.DTS-HD.MA.5.1.x264-P4TiP4T
    Encoded date                   : UTC 2020-06-11 13:34:02 / UTC 2017-08-02T18:39:31Z
    Writing application            : mkvmerge v47.0.0 ('Black Flag') 64-bit
    Writing library                : libebml v1.3.10 + libmatroska v1.5.2 / Lavf57.7.2
    Cover                          : Yes
    Attachments                    : cover
    
    Video
    ID                             : 1
    Format                         : AVC
    Format/Info                    : Advanced Video Codec
    Format profile                 : [email protected]
    Format settings, CABAC         : Yes
    Format settings, RefFrames     : 4 frames
    Codec ID                       : V_MPEG4/ISO/AVC
    Duration                       : 1 h 27 min
    Nominal bit rate               : 15.0 Mb/s
    Width                          : 1 920 pixels
    Height                         : 1 080 pixels
    Display aspect ratio           : 16:9
    Frame rate mode                : Constant
    Frame rate                     : 23.976 (24000/1001) FPS
    Color space                    : YUV
    Chroma subsampling             : 4:2:0
    Bit depth                      : 8 bits
    Scan type                      : Progressive
    Bits/(Pixel*Frame)             : 0.302
    Writing library                : x264 core 148 r2708 86b7198
    Encoding settings              : cabac=1 / ref=3 / deblock=1:0:0009
    Default                        : Yes
    Forced                         : No
    Color range                    : Limited
    Color primaries                : BT.709
    Transfer characteristics       : BT.709
    Matrix coefficients            : BT.709
    Statistics Tags Issue          : mkvmerge v47.0.0 ('Black Flag') 64-bit
    FromStats_BitRate              : 14885749
    FromStats_Duration             : 01:27:44.426000000
    FromStats_FrameCount           : 126220
    FromStats_StreamSize           : 9795615753
    
    Audio #1
    ID                             : 2
    Format                         : DTS
    Format/Info                    : Digital Theater Systems
    Format profile                 : MA / Core
    Mode                           : 16
    Format settings, Endianness    : Big
    Codec ID                       : A_DTS
    Duration                       : 1 h 27 min
    Bit rate mode                  : Variable / Constant
    Bit rate                       : Unknown / 1 509 kb/s
    Channel(s)                     : 6 channels
    Channel positions              : Front: L C R, Side: L R, LFE
    Sampling rate                  : 48.0 kHz
    Frame rate                     : 93.750 FPS (512 SPF)
    Bit depth                      : 24 bits
    Compression mode               : Lossless / Lossy
    Language                       : English
    Default                        : No
    Forced                         : No
    Statistics Tags Issue          : mkvmerge v47.0.0 ('Black Flag') 64-bit
    FromStats_BitRate              : 4066592
    FromStats_Duration             : 01:27:45.419000000
    FromStats_FrameCount           : 493633
    FromStats_StreamSize           : 2676538872
    
    Audio #2
    ID                             : 3
    Format                         : AC-3
    Format/Info                    : Audio Coding 3
    Format settings, Endianness    : Big
    Codec ID                       : A_AC3
    Duration                       : 1 h 27 min
    Bit rate mode                  : Constant
    Bit rate                       : 384 kb/s
    Channel(s)                     : 6 channels
    Channel positions              : Front: L C R, Side: L R, LFE
    Sampling rate                  : 48.0 kHz
    Frame rate                     : 31.250 FPS (1536 SPF)
    Bit depth                      : 16 bits
    Compression mode               : Lossy
    Stream size                    : 241 MiB (2%)
    Language                       : Thai
    Service kind                   : Complete Main
    Default                        : Yes
    Forced                         : Yes
    Statistics Tags Issue          : mkvmerge v47.0.0 ('Black Flag') 64-bit
    FromStats_BitRate              : 384000
    FromStats_Duration             : 01:27:45.440000000
    FromStats_FrameCount           : 164545
    FromStats_StreamSize           : 252741120
    
    Text #1
    ID                             : 4
    Format                         : UTF-8
    Codec ID                       : S_TEXT/UTF8
    Codec ID/Info                  : UTF-8 Plain Text
    Language                       : English
    Default                        : No
    Forced                         : No
    Statistics Tags Issue          : mkvmerge v47.0.0 ('Black Flag') 64-bit
    FromStats_BitRate              : 38
    FromStats_Duration             : 01:20:32.586000000
    FromStats_FrameCount           : 702
    FromStats_StreamSize           : 23264
    
    Text #2
    ID                             : 5
    Format                         : PGS
    Muxing mode                    : zlib
    Codec ID                       : S_HDMV/PGS
    Codec ID/Info                  : Picture based subtitle format used on BDs/HD-DVDs
    Language                       : English
    Default                        : No
    Forced                         : No
    Statistics Tags Issue          : mkvmerge v47.0.0 ('Black Flag') 64-bit
    FromStats_BitRate              : 21890
    FromStats_Duration             : 01:25:55.484000000
    FromStats_FrameCount           : 1643
    FromStats_StreamSize           : 14106874
    
    Text #3
    ID                             : 6
    Format                         : PGS
    Muxing mode                    : zlib
    Codec ID                       : S_HDMV/PGS
    Codec ID/Info                  : Picture based subtitle format used on BDs/HD-DVDs
    Language                       : German
    Default                        : No
    Forced                         : No
    Statistics Tags Issue          : mkvmerge v47.0.0 ('Black Flag') 64-bit
    FromStats_BitRate              : 25579
    FromStats_Duration             : 01:25:55.484000000
    FromStats_FrameCount           : 1646
    FromStats_StreamSize           : 16484649
    
    Text #4
    ID                             : 7
    Format                         : PGS
    Muxing mode                    : zlib
    Codec ID                       : S_HDMV/PGS
    Codec ID/Info                  : Picture based subtitle format used on BDs/HD-DVDs
    Language                       : Spanish
    Default                        : No
    Forced                         : No
    Statistics Tags Issue          : mkvmerge v47.0.0 ('Black Flag') 64-bit
    FromStats_BitRate              : 19144
    FromStats_Duration             : 01:25:55.484000000
    FromStats_FrameCount           : 1460
    FromStats_StreamSize           : 12337419
    
    Text #5
    ID                             : 8
    Format                         : PGS
    Muxing mode                    : zlib
    Codec ID                       : S_HDMV/PGS
    Codec ID/Info                  : Picture based subtitle format used on BDs/HD-DVDs
    Language                       : German
    Default                        : No
    Forced                         : No
    Statistics Tags Issue          : mkvmerge v47.0.0 ('Black Flag') 64-bit
    FromStats_BitRate              : 93
    FromStats_Duration             : 01:19:28.764000000
    FromStats_FrameCount           : 6
    FromStats_StreamSize           : 56001
    
    Text #6
    ID                             : 9
    Format                         : UTF-8
    Codec ID                       : S_TEXT/UTF8
    Codec ID/Info                  : UTF-8 Plain Text
    Language                       : Thai
    Default                        : No
    Forced                         : No
    Statistics Tags Issue          : mkvmerge v47.0.0 ('Black Flag') 64-bit
    FromStats_BitRate              : 85
    FromStats_Duration             : 01:21:34.234000000
    FromStats_FrameCount           : 699
    FromStats_StreamSize           : 52083
    
    Text #7
    ID                             : 10
    Format                         : PGS
    Muxing mode                    : zlib
    Codec ID                       : S_HDMV/PGS
    Codec ID/Info                  : Picture based subtitle format used on BDs/HD-DVDs
    Language                       : Thai
    Default                        : Yes
    Forced                         : Yes
    Statistics Tags Issue          : mkvmerge v47.0.0 ('Black Flag') 64-bit
    FromStats_BitRate              : 26913
    FromStats_Duration             : 01:21:34.234000000
    FromStats_FrameCount           : 1398
    FromStats_StreamSize           : 16464924
    Download: cornfile
    1980-Friday the 13th Part 1 A Long Night at Camp Blood (1980) ศุกร์ 13 ฝันหวาน ภาค 1.mkv - 7.0 GB
    1981-Friday the 13th Part 2 Jason (1981) ศุกร์ 13 ฝันหวาน ภาค 2.mkv - 6.9 GB
    1982-Friday the 13th Part 3 3D (1982) ศุกร์ 13 ฝันหวาน ภาค 3.mkv - 9.5 GB
    1984-Friday the 13th Part 4 The Final Chapter (1984) ศุกร์ 13 ฝันหวาน ภาค 4.mkv - 8.0 GB
    1985-Friday the 13th Part 5 A New Beginning (1985) ศุกร์ 13 ฝันหวาน ภาค 5.mkv - 8.0 GB
    1986-Friday the 13th Part 6 Jason Lives (1986) ศุกร์ 13 ฝันหวาน ภาค 6 เจสันคืนชีพ.mkv - 7.9 GB
    1988-Friday the 13th Part 7 The New Blood (1988) ศุกร์ 13 ฝันหวาน ภาค 7 ทายาทสยอง.mkv - 11.8 GB
    1989-Friday the 13th Part 8 Jason Takes Manhattan (1989) ศุกร์ 13 ฝันหวาน ภาค 8 เจสันบุกแมนฮัตตัน.mkv - 9.2 GB
    1993-Jason Goes to Hell The Final Friday (1993) ศุกร์ 13 ฝันหวาน ภาค 9 วันศุกร์แบบนี้จะไม่มีอีกแล้ว.mkv - 11.9 GB

    Download: mekafile
    1980-Friday the 13th Part 1 A Long Night at Camp Blood (1980) ศุกร์ 13 ฝันหวาน ภาค 1.mkv - 7.0 GB
    1981-Friday the 13th Part 2 Jason (1981) ศุกร์ 13 ฝันหวาน ภาค 2.mkv - 6.9 GB
    1982-Friday the 13th Part 3 3D (1982) ศุกร์ 13 ฝันหวาน ภาค 3.mkv - 9.5 GB
    1984-Friday the 13th Part 4 The Final Chapter (1984) ศุกร์ 13 ฝันหวาน ภาค 4.mkv - 8.0 GB
    1985-Friday the 13th Part 5 A New Beginning (1985) ศุกร์ 13 ฝันหวาน ภาค 5.mkv - 8.0 GB
    1986-Friday the 13th Part 6 Jason Lives (1986) ศุกร์ 13 ฝันหวาน ภาค 6 เจสันคืนชีพ.mkv - 7.9 GB
    1988-Friday the 13th Part 7 The New Blood (1988) ศุกร์ 13 ฝันหวาน ภาค 7 ทายาทสยอง.mkv - 11.8 GB
    1989-Friday the 13th Part 8 Jason Takes Manhattan (1989) ศุกร์ 13 ฝันหวาน ภาค 8 เจสันบุกแมนฮัตตัน.mkv - 9.2 GB
    1993-Jason Goes to Hell The Final Friday (1993) ศุกร์ 13 ฝันหวาน ภาค 9 วันศุกร์แบบนี้จะไม่มีอีกแล้ว.mkv - 11.9 GB

  2. The Following User Says Thank You to Duckload.us For This Useful Post:

    Wesker_TOT (05-15-2021)

  3. #2
    Senior Member
    สมัครเมื่อ
    Jun 2014
    โพสต์
    5,087
    Thanks
    0
    Thanked 0 Times in 0 Posts
    ขอบคุณครับ

  4. #3
    Senior Member
    สมัครเมื่อ
    Dec 2013
    โพสต์
    6,358
    Thanks
    8,340
    Thanked 0 Times in 0 Posts
    ขอบคุณครับ...

  5. #4
    Junior Member
    สมัครเมื่อ
    Oct 2023
    โพสต์
    1
    Thanks
    0
    Thanked 0 Times in 0 Posts
    ขอบคุณครับ
    ภาคแรกโหลดไม่ได้ครับ รบกวนแก้ไขให้หน่อยครับ

+ ตอบกลับกระทู้

ข้อมูลกระทู้

Users Browsing this Thread

ในขณะนี้มี 1 ท่านดูกระทู้อยู่. (0 สมาชิกและ 1 ผู้เยี่ยมชม)

     

กฎการโพสต์ข้อความ

  • ท่าน ไม่สามารถ ตั้งกระทู้ใหม่ได้
  • ท่าน ไม่สามารถ ตอบกระทู้ได้
  • ท่าน ไม่สามารถ แนบไฟล์ได้
  • ท่าน ไม่สามารถ แก้ไขข้อความโพสต์ได้
  • BB code สถานะ เปิด
  • Smilies สถานะ เปิด
  • [IMG] สถานะ เปิด
  • HTML สถานะ ปิด