เป็นอีกหนึ่งภาพยนต์สยองขวัญสั่นประสาทคนดู ที่พยายามจะขอมาเบียดพื้นที่ทำเงิน ในช่วงที่หนังBlocbuster เริ่มจะซาลงไปหลังช่วงซัมเมอร์ที่ผ่านมา…บวกกับใกล้เ ทศกาล “วันฮาโลวีน” ก็ยิ่งเป็นช่องทางให้หนังสยองได้ออกมาหายใจ ทำเงินเข้ากระเป๋าบ้าง
และนี่คือภาพยนต์ “ทุนต่ำ” สุดอินดี้ จากประเทศออสเตรีย (ไม่ใช่หนังฮอลลีวู้ดนะ แต่ว่าดังมากๆ ในอเมริกาซะงั้น) ที่กระแสดีมากๆ ในอเมริกา ถึง “ความน่ากลัว” “กดดัน” และ “ซ่อนปมประเด็นได้อย่างแยบคาย” กับหนังผีฝรั่งที่มี่อว่า “The Babadook” (“บาบาดุค” ปลุกปีศาจ ม่ได้อ่านว่า “ปลาปลาดุก” แต่อย่างใด…ฮ่าๆ)

The Babadook (2014) บาบาดุค ปลุกปีศาจ
เรท น 15+ | 93 นาที | Drama, Horror, Thriller
ผู้กำกับและเขียนบทภาพยนตร์ : Jennifer Kent
นักแสดงนำ : Essie Davis, Daniel Henshall, Tiffany Lyndall-Knight, Noah Wiseman
เข้าฉาย 9 : ตุลาคม 2557
ผู้ผลิต/ผู้จัดจำหน่าย/สตูดิโอ : Causeway Films, Smoking Gun Productions
ค่ายหนัง : Mongkol Major
สถานที่ถ่ายทำ : ประเทศออสเตรเลีย
ภาษา : อังกฤษ, Thai
SubTitle : อังกฤษ, Thai



เรื่องย่อ :

6 ปีภายหลังจากการเสียชีวิตของสามี ทำให้ เอมิเลีย (เอสซี่ เดวิส) ต้องเลี้ยงดู ซามูเอล (โนอา ไวส์แมน) ลูกชายวัย 6 ปีของเธอเพียงลำพังอย่างยากลำบาก ทุกคืนเด็กชายมักจะถูกหลอกหลอนด้วยปีศาจในฝันร้ายที่ เขาเชื่อว่าตั้งใจจะทำร้ายและมุ่งเอาชีวิตของตัวเองแ ละแม่ วันหนี่งหลังจากได้อ่านนิทานก่อนนอนที่มีชื่อว่า The Babadook ซามูเอล ก็มั่นว่าใจสิ่งมีชีวิตที่แสนน่ากลัวในเนื้อเรื่องคื อปีศาจที่เขาฝันถึงทุกคืน จากเรื่องไร้สาระที่ดูเหมือนจะเป็นแค่จินตนาการของเด ็กชายตัวน้อย กลับกลายเป็นประสบการณ์หลอนคาบ้าน เมื่อ 2 แม่ลูกพบว่าตัวเองไม่ได้อยู่ในบ้านหลังนี้ตามลำพังอี กต่อไป!



General
Unique ID : 31656417296765272667426973795428384082
Complete name : The Babadook (2014) บาบาดุค ปลุกปีศาจ [X265 Mini].mkv
Format : Matroska
Format version : Version 4 / Version 2
File size : 1.89 GiB
Duration : 1 h 33 min
Overall bit rate : 2 883 kb/s
Movie name : The.Babadook.2014.1080p.BluRay.HEVC.10bit.AAC.H265-P4TiP4T
Encoded date : UTC 2020-06-20 05:40:34
Writing application : mkvmerge v47.0.0 ('Black Flag') 64-bit
Writing library : libebml v1.3.10 + libmatroska v1.5.2
Cover : Yes
Attachments : cover

Video
ID : 1
Format : HEVC
Format/Info : High Efficiency Video Coding
Format profile : Main [email protected]@Main
Codec ID : V_MPEGH/ISO/HEVC
Duration : 1 h 33 min
Bit rate : 1 993 kb/s
Width : 1 920 pixels
Height : 812 pixels
Display aspect ratio : 2.35:1
Frame rate mode : Constant
Frame rate : 23.976 (24000/1001) FPS
Color space : YUV
Chroma subsampling : 4:2:0
Bit depth : 10 bits
Bits/(Pixel*Frame) : 0.053
Stream size : 1.31 GiB (69%)
Writing library : x265 3.3+4-siambit.me-30eb4de83092:[Linux][GCC 8.3.1][64 bit] 10bit
Encoding settings : cpuid=1111039
Default : Yes
Forced : No

Audio #1
ID : 2
Format : AAC
Format/Info : Advanced Audio Codec
Format profile : LC
Codec ID : A_AAC
Duration : 1 h 33 min
Bit rate : 224 kb/s
Channel(s) : 6 channels
Channel positions : Front: L C R, Side: L R, LFE
Sampling rate : 48.0 kHz
Frame rate : 46.875 FPS (1024 SPF)
Compression mode : Lossy
Delay relative to video : -43 ms
Stream size : 150 MiB (8%)
Language : English
Default : No
Forced : No

Audio #2
ID : 3
Format : AC-3
Format/Info : Audio Coding 3
Format settings, Endianness : Big
Codec ID : A_AC3
Duration : 1 h 33 min
Bit rate mode : Constant
Bit rate : 640 kb/s
Channel(s) : 6 channels
Channel positions : Front: L C R, Side: L R, LFE
Sampling rate : 48.0 kHz
Frame rate : 31.250 FPS (1536 SPF)
Bit depth : 16 bits
Compression mode : Lossy
Delay relative to video : -43 ms
Stream size : 429 MiB (22%)
Language : Thai
Service kind : Complete Main
Default : Yes
Forced : Yes

Text #1
ID : 4
Format : UTF-8
Codec ID : S_TEXT/UTF8
Codec ID/Info : UTF-8 Plain Text
Duration : 1 h 28 min
Bit rate : 36 b/s
Count of elements : 835
Stream size : 23.9 KiB (0%)
Language : English
Default : No
Forced : No

Text #2
ID : 5
Format : VobSub
Muxing mode : zlib
Codec ID : S_VOBSUB
Codec ID/Info : Picture based subtitle format used on DVDs
Duration : 1 h 28 min
Bit rate : 7 420 b/s
Count of elements : 848
Stream size : 4.70 MiB (0%)
Language : English
Default : No
Forced : No

Text #3
ID : 6
Format : PGS
Muxing mode : zlib
Codec ID : S_HDMV/PGS
Codec ID/Info : Picture based subtitle format used on BDs/HD-DVDs
Duration : 1 h 28 min
Bit rate : 20.7 kb/s
Count of elements : 1696
Stream size : 13.1 MiB (1%)
Language : English
Default : No
Forced : No

Text #4
ID : 7
Format : UTF-8
Codec ID : S_TEXT/UTF8
Codec ID/Info : UTF-8 Plain Text
Duration : 1 h 28 min
Bit rate : 77 b/s
Count of elements : 831
Stream size : 50.0 KiB (0%)
Language : Thai
Default : No
Forced : No

Text #5
ID : 8
Format : PGS
Muxing mode : zlib
Codec ID : S_HDMV/PGS
Codec ID/Info : Picture based subtitle format used on BDs/HD-DVDs
Duration : 1 h 28 min
Bit rate : 26.2 kb/s
Count of elements : 1662
Stream size : 16.6 MiB (1%)
Language : Thai
Default : Yes
Forced : Yes

Menu
00:00:00.000 : :Chapter 1
00:03:13.276 : :Chapter 2
00:10:42.224 : :Chapter 3
00:17:40.142 : :Chapter 4
00:24:08.530 : :Chapter 5
00:32:51.552 : :Chapter 6
00:39:23.444 : :Chapter 7
00:43:43.203 : :Chapter 8
00:46:01.842 : :Chapter 9
00:53:54.314 : :Chapter 10
01:01:22.762 : :Chapter 11
01:08:38.197 : :Chapter 12
01:14:06.024 : :Chapter 13
01:18:38.797 : :Chapter 14
01:24:58.176 : :Chapter 15
01:30:11.489 : :Chapter 16

http://cornfile.com/d6gqbt6e4iro
http://www.mekafile.com/dl.php?f=Ib0ec4caE5zg