Hanna ==COMPLETE SS 1-2



Sound : eng DDP 5.1

Subtitle : Thai PGS/SRT/VOB + Eng Master AMZN PRIMEVDO

ซีรีส์ดราม่าแนวระทึกขวัญชั้นสูงที่ว่าด้วยการเติบโต เป็นผู้ใหญ่ ฮานนาติดตามการเดินทางของเด็กสาวที่ไม่ธรรมดาผู้เติบ โตขึ้นในป่าใหญ่ ก่อนจะต้องหลบหนีจากเจ้าหน้าที่ซีไอเอหัวขบถที่ติดตา มเธออย่างไม่ลดละ พร้อมพยายามเปิดเผยความจริงเบื้องหลังตัวตนที่แท้จริ งของเธอ
แสดงโดย Mireille Enos, Joel Kinnaman, Esme Creed-Miles
ประเภท แอคชัน, ดราม่า


Code:
Format                                   : Matroska
Format version                           : Version 4
File size                                : 5.11 GiB
Duration                                 : 48 min 26 s
Overall bit rate                         : 15.1 Mb/s
Encoded date                             : UTC 2020-05-04 13:03:21
Writing application                      : mkvmerge v35.0.0 ('All The Love In The World') 64-bit
Writing library                          : libebml v1.3.9 + libmatroska v1.5.2

Video
ID                                       : 1
Format                                   : HEVC
Format/Info                              : High Efficiency Video Coding
Format profile                           : Main [email protected]@Main
HDR format                               : SMPTE ST 2086, HDR10 compatible
Codec ID                                 : V_MPEGH/ISO/HEVC
Duration                                 : 48 min 25 s
Bit rate                                 : 14.4 Mb/s
Width                                    : 3 840 pixels
Height                                   : 1 920 pixels
Display aspect ratio                     : 2.000
Frame rate mode                          : Constant
Frame rate                               : 23.976 (24000/1001) FPS
Color space                              : YUV
Chroma subsampling                       : 4:2:0
Bit depth                                : 10 bits
Bits/(Pixel*Frame)                       : 0.082
Stream size                              : 4.89 GiB (96%)
Writing library                          : x265 3.0_Au+3-5b90dc59b57a:[Windows][MSVC 1916][64 bit] 10bit
 
Default                                  : Yes
Forced                                   : No
Color range                              : Limited
Color primaries                          : BT.2020
Transfer characteristics                 : PQ
Matrix coefficients                      : BT.2020 non-constant
Mastering display color primaries        : Display P3
Mastering display luminance              : min: 0.0001 cd/m2, max: 1000 cd/m2
Maximum Content Light Level              : 980 cd/m2
Maximum Frame-Average Light Level        : 396 cd/m2

Audio
ID                                       : 2
Format                                   : E-AC-3
Format/Info                              : Enhanced AC-3
Commercial name                          : Dolby Digital Plus
Codec ID                                 : A_EAC3
Duration                                 : 48 min 26 s
Bit rate mode                            : Constant
Bit rate                                 : 640 kb/s
Channel(s)                               : 6 channels
Channel layout                           : L R C LFE Ls Rs
Sampling rate                            : 48.0 kHz
Frame rate                               : 31.250 FPS (1536 SPF)
Compression mode                         : Lossy
Stream size                              : 222 MiB (4%)
Language                                 : English
Service kind                             : Complete Main
Default                                  : Yes
Forced                                   : No

Text #1
ID                                       : 3
Format                                   : UTF-8
Codec ID                                 : S_TEXT/UTF8
Codec ID/Info                            : UTF-8 Plain Text
Duration                                 : 47 min 36 s
Bit rate                                 : 32 b/s
Count of elements                        : 498
Stream size                              : 11.4 KiB (0%)
Language                                 : English
Default                                  : No
Forced                                   : No

Text #2
ID                                       : 4
Format                                   : UTF-8
Codec ID                                 : S_TEXT/UTF8
Codec ID/Info                            : UTF-8 Plain Text
Duration                                 : 47 min 36 s
Bit rate                                 : 32 b/s
Count of elements                        : 511
Stream size                              : 11.5 KiB (0%)
Title                                    : SDH
Language                                 : English
Default                                  : No
Forced                                   : No

Text #3
ID                                       : 5
Format                                   : UTF-8
Codec ID                                 : S_TEXT/UTF8
Codec ID/Info                            : UTF-8 Plain Text
Duration                                 : 45 min 56 s
Bit rate                                 : 42 b/s
Count of elements                        : 362
Stream size                              : 14.4 KiB (0%)
Language                                 : Arabic
Default                                  : No
Forced                                   : No

Text #4
ID                                       : 6
Format                                   : UTF-8
Codec ID                                 : S_TEXT/UTF8
Codec ID/Info                            : UTF-8 Plain Text
Duration                                 : 45 min 56 s
Bit rate                                 : 23 b/s
Count of elements                        : 363
Stream size                              : 7.78 KiB (0%)
Language                                 : Chinese
Default                                  : No
Forced                                   : No

Text #5
ID                                       : 7
Format                                   : UTF-8
Codec ID                                 : S_TEXT/UTF8
Codec ID/Info                            : UTF-8 Plain Text
Duration                                 : 45 min 56 s
Bit rate                                 : 23 b/s
Count of elements                        : 363
Stream size                              : 7.78 KiB (0%)
Language                                 : Chinese
Default                                  : No
Forced                                   : No

Text #6
ID                                       : 8
Format                                   : UTF-8
Codec ID                                 : S_TEXT/UTF8
Codec ID/Info                            : UTF-8 Plain Text
Duration                                 : 45 min 56 s
Bit rate                                 : 25 b/s
Count of elements                        : 358
Stream size                              : 8.46 KiB (0%)
Language                                 : Danish
Default                                  : No
Forced                                   : No

Text #7
ID                                       : 9
Format                                   : UTF-8
Codec ID                                 : S_TEXT/UTF8
Codec ID/Info                            : UTF-8 Plain Text
Duration                                 : 45 min 57 s
Bit rate                                 : 26 b/s
Count of elements                        : 308
Stream size                              : 8.90 KiB (0%)
Language                                 : German
Default                                  : No
Forced                                   : No

Text #8
ID                                       : 10
Format                                   : UTF-8
Codec ID                                 : S_TEXT/UTF8
Codec ID/Info                            : UTF-8 Plain Text
Duration                                 : 45 min 56 s
Bit rate                                 : 26 b/s
Count of elements                        : 360
Stream size                              : 9.02 KiB (0%)
Language                                 : Spanish
Default                                  : No
Forced                                   : No

Text #9
ID                                       : 11
Format                                   : UTF-8
Codec ID                                 : S_TEXT/UTF8
Codec ID/Info                            : UTF-8 Plain Text
Duration                                 : 45 min 56 s
Bit rate                                 : 26 b/s
Count of elements                        : 360
Stream size                              : 9.02 KiB (0%)
Language                                 : Spanish
Default                                  : No
Forced                                   : No

Text #10
ID                                       : 12
Format                                   : UTF-8
Codec ID                                 : S_TEXT/UTF8
Codec ID/Info                            : UTF-8 Plain Text
Duration                                 : 45 min 56 s
Bit rate                                 : 23 b/s
Count of elements                        : 356
Stream size                              : 7.84 KiB (0%)
Language                                 : Finnish
Default                                  : No
Forced                                   : No

Text #11
ID                                       : 13
Format                                   : UTF-8
Codec ID                                 : S_TEXT/UTF8
Codec ID/Info                            : UTF-8 Plain Text
Duration                                 : 45 min 56 s
Bit rate                                 : 26 b/s
Count of elements                        : 355
Stream size                              : 8.84 KiB (0%)
Language                                 : French
Default                                  : No
Forced                                   : No

Text #12
ID                                       : 14
Format                                   : UTF-8
Codec ID                                 : S_TEXT/UTF8
Codec ID/Info                            : UTF-8 Plain Text
Duration                                 : 45 min 56 s
Bit rate                                 : 72 b/s
Count of elements                        : 363
Stream size                              : 24.3 KiB (0%)
Language                                 : Hindi
Default                                  : No
Forced                                   : No

Text #13
ID                                       : 15
Format                                   : UTF-8
Codec ID                                 : S_TEXT/UTF8
Codec ID/Info                            : UTF-8 Plain Text
Duration                                 : 45 min 56 s
Bit rate                                 : 23 b/s
Count of elements                        : 361
Stream size                              : 8.03 KiB (0%)
Language                                 : Indonesian
Default                                  : No
Forced                                   : No

Text #14
ID                                       : 16
Format                                   : UTF-8
Codec ID                                 : S_TEXT/UTF8
Codec ID/Info                            : UTF-8 Plain Text
Duration                                 : 45 min 56 s
Bit rate                                 : 26 b/s
Count of elements                        : 360
Stream size                              : 8.79 KiB (0%)
Language                                 : Italian
Default                                  : No
Forced                                   : No

Text #15
ID                                       : 17
Format                                   : UTF-8
Codec ID                                 : S_TEXT/UTF8
Codec ID/Info                            : UTF-8 Plain Text
Duration                                 : 45 min 56 s
Bit rate                                 : 27 b/s
Count of elements                        : 363
Stream size                              : 9.21 KiB (0%)
Language                                 : Korean
Default                                  : No
Forced                                   : No

Text #16
ID                                       : 18
Format                                   : UTF-8
Codec ID                                 : S_TEXT/UTF8
Codec ID/Info                            : UTF-8 Plain Text
Duration                                 : 45 min 56 s
Bit rate                                 : 25 b/s
Count of elements                        : 360
Stream size                              : 8.44 KiB (0%)
Language                                 : Norwegian Bokmal
Default                                  : No
Forced                                   : No

Text #17
ID                                       : 19
Format                                   : UTF-8
Codec ID                                 : S_TEXT/UTF8
Codec ID/Info                            : UTF-8 Plain Text
Duration                                 : 45 min 56 s
Bit rate                                 : 24 b/s
Count of elements                        : 359
Stream size                              : 8.40 KiB (0%)
Language                                 : Dutch
Default                                  : No
Forced                                   : No

Text #18
ID                                       : 20
Format                                   : UTF-8
Codec ID                                 : S_TEXT/UTF8
Codec ID/Info                            : UTF-8 Plain Text
Duration                                 : 45 min 56 s
Bit rate                                 : 23 b/s
Count of elements                        : 348
Stream size                              : 7.99 KiB (0%)
Language                                 : Polish
Default                                  : No
Forced                                   : No

Text #19
ID                                       : 21
Format                                   : UTF-8
Codec ID                                 : S_TEXT/UTF8
Codec ID/Info                            : UTF-8 Plain Text
Duration                                 : 45 min 56 s
Bit rate                                 : 25 b/s
Count of elements                        : 360
Stream size                              : 8.52 KiB (0%)
Language                                 : Portuguese
Default                                  : No
Forced                                   : No

Text #20
ID                                       : 22
Format                                   : UTF-8
Codec ID                                 : S_TEXT/UTF8
Codec ID/Info                            : UTF-8 Plain Text
Duration                                 : 45 min 56 s
Bit rate                                 : 43 b/s
Count of elements                        : 363
Stream size                              : 14.8 KiB (0%)
Language                                 : Russian
Default                                  : No
Forced                                   : No

Text #21
ID                                       : 23
Format                                   : UTF-8
Codec ID                                 : S_TEXT/UTF8
Codec ID/Info                            : UTF-8 Plain Text
Duration                                 : 45 min 56 s
Bit rate                                 : 26 b/s
Count of elements                        : 360
Stream size                              : 8.82 KiB (0%)
Language                                 : Swedish
Default                                  : No
Forced                                   : No

Text #24
ID                                       : 26
Format                                   : UTF-8
Codec ID                                 : S_TEXT/UTF8
Codec ID/Info                            : UTF-8 Plain Text
Duration                                 : 45 min 56 s
Bit rate                                 : 24 b/s
Count of elements                        : 360
Stream size                              : 8.11 KiB (0%)
Language                                 : Turkish
Default                                  : No
Forced                                   : No

Text #25
ID                                       : 27
Format                                   : VobSub
Muxing mode                              : zlib
Codec ID                                 : S_VOBSUB
Codec ID/Info                            : Picture based subtitle format used on DVDs
Duration                                 : 45 min 56 s
Bit rate                                 : 12.6 kb/s
Count of elements                        : 363
Stream size                              : 4.14 MiB (0%)
Title                                    : TH-VOB
Language                                 : Thai
Default                                  : Yes
Forced                                   : No

Text #26
ID                                       : 28
Format                                   : UTF-8
Codec ID                                 : S_TEXT/UTF8
Codec ID/Info                            : UTF-8 Plain Text
Duration                                 : 45 min 56 s
Bit rate                                 : 67 b/s
Count of elements                        : 363
Stream size                              : 22.6 KiB (0%)
Title                                    : TH-SRT
Language                                 : Thai
Default                                  : No
Forced                                   : No

Text #27
ID                                       : 29
Format                                   : PGS
Muxing mode                              : zlib
Codec ID                                 : S_HDMV/PGS
Codec ID/Info                            : Picture based subtitle format used on BDs/HD-DVDs
Duration                                 : 45 min 56 s
Bit rate                                 : 58.5 kb/s
Count of elements                        : 726
Stream size                              : 19.2 MiB (0%)
Title                                    : TH-PGS
Language                                 : Thai
Default                                  : No
Forced                                   : No



Download: cornfile
Hanna S01E01 2160p HDR. DD+ 5.1 [email protected] ..mkv - 6.2 GB
Hanna S01E02 2160p HDR DD+ 5.1 [email protected] ..mkv - 5.5 GB
Hanna S01E03 2160p HDR DD+ 5.1 [email protected] ...mkv - 4.2 GB
Hanna S01E04 2160p HDR DD+ 5.1 [email protected] - 4.2 GB
Hanna S01E05 2160p HDR DD+ 5.1 [email protected] - 4.6 GB
Hanna S01E06 2160p HDRDD+ 5.1 [email protected] - 4.5 GB
Hanna S01E07 2160p HDR DD+ 5.1 [email protected] - 5.2 GB
Hanna S01E08 2160p HDR DD+ 5.1 [email protected] ..mkv - 5.1 GB
[email protected] - 6.5 GB
[email protected] - 6.8 GB
[email protected] - 6.8 GB
[email protected] - 10.1 GB
[email protected] - 9.9 GB
[email protected] - 9.0 GB
[email protected] - 7.3 GB
[email protected] - 7.4 GB

Download: mekafile
Hanna.S02
1 http://www.mekafile.com/dl.php?f=z46528cbSlsr
2 http://www.mekafile.com/dl.php?f=lAac5bcbSlyS
3 http://www.mekafile.com/dl.php?f=5hf896cbSm6R
4 http://www.mekafile.com/dl.php?f=54659ecbSlhP
5 http://www.mekafile.com/dl.php?f=WEacffcbSlW8
6 http://www.mekafile.com/dl.php?f=S8e2d2cbSlO7
7 http://www.mekafile.com/dl.php?f=vg2dd8cbSm0E
8 http://www.mekafile.com/dl.php?f=x79faccbSlGT

Hanna.S01
1 http://www.mekafile.com/dl.php?f=pdf8a9cbSjmI
2 http://www.mekafile.com/dl.php?f=o8b77acbSjtn
3 http://www.mekafile.com/dl.php?f=pF82a5cbSjG1
4 http://www.mekafile.com/dl.php?f=IS015dcbSk0s
5 http://www.mekafile.com/dl.php?f=m5ae23cbSjzH
6 http://www.mekafile.com/dl.php?f=uGa2bacbSjNf
7 http://www.mekafile.com/dl.php?f=Cc7310cbSjUf
8 http://www.mekafile.com/dl.php?f=bt1ef6cbSk7G