+ ตอบกลับกระทู้
สรุปผลการค้นหา 1 ถึง 2 จากทั้งหมด 2
  1. #1
    Administrators รูปส่วนตัว Duckload.us
    สมัครเมื่อ
    Dec 2010
    โพสต์
    116,914
    Thanks
    7
    Thanked 123,235 Times in 55,233 Posts

    Lightbulb [ญี่ปุ่น]-[Signal สัญญาณข้ามเวลา Kentaro Sakaguchi, Kazuki Kitamura, Michiko Kichise, Yuichi Kimura, Tetsuhiro Ikeda Ep.1-10/End]-HDTV.H.264.1080p. [From HD-TV]-[Soundtrack บรรยายไทย]



    ละครญี่ปุ่นที่รีเมคจากซีรีส์เกาหลีแนวสืบสวนสอบสวนย อดนิยม
    ซีรี่ย์ญี่ปุ่น: Signal
    ชื่อภาษาไทย: สัญญาณข้ามเวลา
    ประเภท: Suspense
    จำนวนตอน: 10
    นำแสดงโดย: Kentaro Sakaguchi, Kazuki Kitamura, Michiko Kichise, Yuichi Kimura, Tetsuhiro Ikeda
    ผู้กำกับ: Akira Uchikata, Kosuke Suzuki
    เขียนบทโดย: Masaya Ozaki
    ออกอากาศทางสถานีโทรทัศน์: Fuji TV
    เริ่มออกอากาศ: 10 เมษายน 2018
    เวลาออกอากาศ: ทุกวันอังคาร เวลา 21:00 น. เวลาญี่ปุ่น
    นักแสดง:
    Sakaguchi Kentaro as Saegusa Kento
    Kitamura Kazuki as Oyama Takeshi
    Kichise Michiko as Sakurai Misaki
    Kamio Fuju as Kato Ryota
    Watabe Atsuro as Nakamoto Shinnosuke
    Kimura Yuichi as Yamada Tsutomu
    Ikeda Tetsuhiro as Kojima Shinya
    Aono Kaede as Anzai Rika
    Komoto Masahiro as Iwata Katsuo
    Matsunaga Yuriko as Mika (ep2,4)
    Aoki Ippei as prison officer (ep5,7)
    Ine Kenji as Notsu (ep10)
    Sysopsis: นายตำรวจหนุ่มยุคปัจจุบัน ซาเอกุสะ เคนโตะ (ซาคากุจิ เคนทาโร่) ได้พบกับวิทยุสื่อสารปริศนาที่ทำให้เขาสามารถสื่อสาร กับโอยามะ ทาเคชิ (คิตามุระ คาซุกิ) ตำรวจหนุ่มใหญ่ในอดีตได้ และนายตำรวจทั้งสองก็ตัดสินใจติดต่อกันข้ามกาลเวลา เพื่อไขปริศนาของคดีที่ยังปิดไม่ลง
    เรื่องราวนี้ของเขาจะเป็นอย่างไร ติดตามชมได้ใน Signal สัญญาณข้ามเวลา
    Credit: ลิโอเนลเมสซี่

    General
    Unique ID : 284607894106846801356297766197337192477 (0xD61D7C8FA698C5C0351927BD5A16F81D)
    Complete name : M:Signal สัญญาณข้ามเวลาSignal-Choki.Mikaiketsu.Jiken.Sosahan.S01E09.1080p.NF.WEB-DL.DDP2.0.x264.mkv
    Format : Matroska
    Format version : Version 4
    File size : 1.19 GiB
    Duration : 45 min 22 s
    Overall bit rate : 3 759 kb/s
    Encoded date : UTC 2020-07-22 23:43:48
    Writing application : mkvmerge v19.0.0 ('Brave Captain') 64-bit
    Writing library : libebml v1.3.5 + libmatroska v1.4.8

    Video
    ID : 1
    Format : AVC
    Format/Info : Advanced Video Codec
    Format profile : [email protected]
    Format settings : CABAC / 4 Ref Frames
    Format settings, CABAC : Yes
    Format settings, Reference fra : 4 frames
    Codec ID : V_MPEG4/ISO/AVC
    Duration : 45 min 22 s
    Bit rate : 3 617 kb/s
    Width : 1 920 pixels
    Height : 1 080 pixels
    Display aspect ratio : 16:9
    Frame rate mode : Constant
    Frame rate : 23.976 (24000/1001) FPS
    Color space : YUV
    Chroma subsampling : 4:2:0
    Bit depth : 8 bits
    Scan type : Progressive
    Bits/(Pixel*Frame) : 0.073
    Stream size : 1.15 GiB (96%)
    Default : Yes
    Forced : No

    Audio
    ID : 2
    Format : E-AC-3
    Format/Info : Enhanced AC-3
    Commercial name : Dolby Digital Plus
    Codec ID : A_EAC3
    Duration : 45 min 22 s
    Bit rate mode : Constant
    Bit rate : 128 kb/s
    Channel(s) : 2 channels
    Channel layout : L R
    Sampling rate : 48.0 kHz
    Frame rate : 31.250 FPS (1536 SPF)
    Compression mode : Lossy
    Delay relative to video : -83 ms
    Stream size : 41.5 MiB (3%)
    Language : Japanese
    Service kind : Complete Main
    Default : Yes
    Forced : No

    Text #1
    ID : 3
    Format : UTF-8
    Codec ID : S_TEXT/UTF8
    Codec ID/Info : UTF-8 Plain Text
    Duration : 45 min 20 s
    Bit rate : 101 b/s
    Count of elements : 578
    Stream size : 33.8 KiB (0%)
    Language : Thai
    Default : Yes
    Forced : No

    Text #2
    ID : 4
    Format : PGS
    Muxing mode : zlib
    Codec ID : S_HDMV/PGS
    Codec ID/Info : Picture based subtitle format used on BDs/HD-DVDs
    Duration : 45 min 20 s
    Bit rate : 26.7 kb/s
    Count of elements : 1156
    Stream size : 8.67 MiB (1%)
    Language : Thai
    Default : No
    Forced : No



    1
    http://www.filecondo.com/dl.php?f=v4b59e1K0C4M
    2
    http://www.filecondo.com/dl.php?f=a284c31K0C5G
    3
    http://www.filecondo.com/dl.php?f=nab2361K0C6H
    4
    http://www.filecondo.com/dl.php?f=yfeec11K0C7F
    5
    http://www.filecondo.com/dl.php?f=5723981K0C8C
    6
    http://www.filecondo.com/dl.php?f=ob82d81K0C9B
    7
    http://www.filecondo.com/dl.php?f=v1dc091K0Cau
    8
    http://www.filecondo.com/dl.php?f=qab0021K0Cbs
    9
    http://www.filecondo.com/dl.php?f=Udff011K0Ccs
    10
    http://www.filecondo.com/dl.php?f=J25ca31K0Cdw

  2. #2
    Senior Member
    สมัครเมื่อ
    May 2012
    โพสต์
    329
    Thanks
    0
    Thanked 0 Times in 0 Posts
    ขอบคุณครับ

+ ตอบกลับกระทู้

ข้อมูลกระทู้

Users Browsing this Thread

ในขณะนี้มี 1 ท่านดูกระทู้อยู่. (0 สมาชิกและ 1 ผู้เยี่ยมชม)

     

กฎการโพสต์ข้อความ

  • ท่าน ไม่สามารถ ตั้งกระทู้ใหม่ได้
  • ท่าน ไม่สามารถ ตอบกระทู้ได้
  • ท่าน ไม่สามารถ แนบไฟล์ได้
  • ท่าน ไม่สามารถ แก้ไขข้อความโพสต์ได้
  • BB code สถานะ เปิด
  • Smilies สถานะ เปิด
  • [IMG] สถานะ เปิด
  • HTML สถานะ ปิด